<?xml version="1.0" standalone="no"?>
<!DOCTYPE svg PUBLIC "-//W3C//DTD SVG 1.1//EN" "http://www.w3.org/Graphics/SVG/1.1/DTD/svg11.dtd" >
<svg xmlns="http://www.w3.org/2000/svg" xmlns:xlink="http://www.w3.org/1999/xlink" version="1.1">
<metadata>
Created by FontForge 20201107 at Sat Dec 21 22:36:16 2024
 By 
Jen Wagner LLC 2022
</metadata>
<defs>
<font id="Editor'sNote-Regular" horiz-adv-x="0" >
  <font-face 
    font-family="Editor'sNote-Regular"
    font-weight="400"
    font-stretch="normal"
    units-per-em="2048"
    panose-1="0 0 0 0 0 0 0 0 0 0"
    ascent="1536"
    descent="-512"
    x-height="1024"
    cap-height="1491"
    bbox="-236 -594 1987 2212"
    underline-thickness="102"
    underline-position="-307"
    unicode-range="U+0020-E202"
  />
<missing-glyph horiz-adv-x="1402" 
d="M260 -594v2806h891v-2806h-891zM469 -399h465v92h-287l197 131h90v92h-465v-92h197l-197 -131v-92zM469 -18h465v317h-465v-317zM469 467h465v317h-281v-157h97v63h92v-131h-281v225h-92v-317zM469 846h465v280h-92v-186h-373v-94zM469 1006h281v196h184v92h-465v-92h184
v-104h-184v-92zM469 1370h465v96h-184v195h-281v-291zM469 1735h465v92h-184v104h184v92h-463v-92h182v-104h-184v-92zM561 74v131h281v-131h-281zM561 1466v101h92v-101h-92z" />
    <glyph glyph-name="uniE200" unicode="ff" horiz-adv-x="1142" 
d="M25 25q64 9 99.5 39.5t35.5 70.5v850h-101v25l101 4q5 92 40.5 182t90.5 160t120.5 125t134.5 84.5t128 29.5q73 0 118.5 -37t45.5 -94q0 -43 -31 -69.5t-78 -26.5q-29 0 -50.5 11t-36 27t-29.5 31.5t-36.5 26.5t-50.5 11q-66 0 -104 -34.5t-58 -124.5t-20 -253v-41
l369 2q7 112 60.5 220t129 183.5t162 121.5t160.5 46q73 0 118.5 -37t45.5 -94q0 -43 -31 -69.5t-78 -26.5q-29 0 -50.5 11t-36.5 27t-29.5 31.5t-36 26.5t-50.5 11q-66 0 -104 -34.5t-58 -124.5t-20 -253v-37h223v-45l-223 2v-848q0 -42 41 -72.5t121 -37.5v-25h-482v25
q64 9 100 39.5t36 70.5v850q-208 4 -367 4v-854q0 -42 41 -72.5t121 -37.5v-25h-481v25z" />
    <glyph glyph-name="uniE201" unicode="fi" horiz-adv-x="1021" 
d="M25 25q64 9 99.5 39.5t35.5 70.5v850h-101v25l101 4q5 91 44 181.5t98.5 160.5t129.5 125t142 84.5t131 29.5q73 0 118 -37t45 -94q0 -43 -30.5 -69.5t-77.5 -26.5q-29 0 -50.5 11t-36.5 27t-29.5 31.5t-36 26.5t-50.5 11q-40 0 -71 -11t-58.5 -39.5t-45.5 -74.5
t-28 -118.5t-10 -168.5v-41q144 4 223 4v-45q-67 0 -223 8v-854q0 -42 41 -72.5t121 -37.5v-25h-481v25zM551 0v25q64 9 99.5 39.5t35.5 70.5v645q0 43 -31.5 73t-103.5 34v24l297 138l22 -15v-899q0 -41 38 -72t104 -38v-25h-461z" />
    <glyph glyph-name="uniE202" unicode="fl" horiz-adv-x="1032" 
d="M25 25q64 9 99.5 39.5t35.5 70.5v850h-101v25l101 4q5 92 40.5 182t90.5 160t120.5 125t134.5 84.5t128 29.5q56 0 102 -32l72 36l22 -14v-1450q0 -41 38 -72t104 -38v-25h-461v25q64 9 99.5 39.5t35.5 70.5v846q-178 0 -342 8v-854q0 -42 41 -72.5t121 -37.5v-25h-481
v25zM344 1022q152 4 342 4v322q0 61 -43 94t-117 33q-66 0 -104 -34.5t-58 -124.5t-20 -253v-41z" />
    <glyph glyph-name=".notdef" horiz-adv-x="1402" 
d="M260 -594v2806h891v-2806h-891zM469 -399h465v92h-287l197 131h90v92h-465v-92h197l-197 -131v-92zM469 -18h465v317h-465v-317zM469 467h465v317h-281v-157h97v63h92v-131h-281v225h-92v-317zM469 846h465v280h-92v-186h-373v-94zM469 1006h281v196h184v92h-465v-92h184
v-104h-184v-92zM469 1370h465v96h-184v195h-281v-291zM469 1735h465v92h-184v104h184v92h-463v-92h182v-104h-184v-92zM561 74v131h281v-131h-281zM561 1466v101h92v-101h-92z" />
    <glyph glyph-name=".null" 
 />
    <glyph glyph-name="nonmarkingreturn" horiz-adv-x="682" 
 />
    <glyph glyph-name="space" unicode=" " horiz-adv-x="389" 
 />
    <glyph glyph-name="space" unicode="&#xa0;" horiz-adv-x="389" 
 />
    <glyph glyph-name="exclam" unicode="!" horiz-adv-x="403" 
d="M96 1386q-6 58 25.5 91.5t95.5 33.5q62 0 92.5 -33.5t24.5 -91.5l-105 -950h-28zM82 115q0 55 40 95t95 40t95 -40t40 -95t-40 -95t-95 -40t-95 40t-40 95z" />
    <glyph glyph-name="quotedbl" unicode="&#x22;" horiz-adv-x="585" 
d="M104 1108q-94 344 -92 412q1 49 32.5 82.5t74.5 31.5q49 0 80.5 -33t29.5 -81q-3 -81 -98 -412h-27zM268 1520q1 49 32.5 82.5t74.5 31.5q49 0 80.5 -33t29.5 -81q-3 -81 -98 -412h-27q-94 344 -92 412z" />
    <glyph glyph-name="numbersign" unicode="#" horiz-adv-x="1329" 
d="M242 90l-45 14l127 443h-308v37h320l106 372h-309v37h320l129 445l43 -13l-125 -432h444l129 445l43 -13l-125 -432h322v-37h-332l-107 -372h322v-37h-332l-131 -457l-45 14l127 443h-442zM383 584h444l107 372h-445z" />
    <glyph glyph-name="dollar" unicode="$" horiz-adv-x="1079" 
d="M526 -209v189h-2q-144 0 -277.5 34.5t-185.5 81.5l-20 385h27q61 -211 181.5 -329t276.5 -129v659q-21 13 -70 42t-72.5 44t-66.5 43t-65.5 46.5t-55 47t-50 53.5t-35.5 56t-25.5 64t-7.5 69q0 159 113.5 262.5t314.5 103.5h16v189h45v-191q230 -12 340 -108l21 -313h-27
q-55 159 -142 254t-192 122v-557q172 -104 230 -148q179 -134 212 -285q9 -39 9 -81q0 -85 -25 -155.5t-76.5 -127.5t-139.5 -91t-206 -39v-191h-45zM270 1235q0 -85 64 -153t188 -146v539q-12 2 -37 2q-91 0 -153 -71t-62 -171zM571 20q129 5 200 76.5t71 200.5
q0 57 -20.5 108t-61 95t-84 79t-105.5 74v-633z" />
    <glyph glyph-name="percent" unicode="%" horiz-adv-x="1220" 
d="M389 -125l-45 12l487 1692l43 -12zM102 1133q0 98 56 160.5t145 62.5t145 -60.5t56 -156.5q0 -98 -55.5 -161t-143.5 -63q-89 0 -146 61.5t-57 156.5zM199 1143q0 -85 30.5 -138t79.5 -53q43 0 71 50t28 128q0 84 -30.5 137.5t-78.5 53.5q-44 0 -72 -50t-28 -128z
M717 313q0 99 56 161.5t145 62.5t144.5 -61t55.5 -157q0 -98 -55 -160.5t-143 -62.5q-89 0 -146 61t-57 156zM813 324q0 -85 31 -138t80 -53q43 0 70.5 50t27.5 128q0 84 -30.5 137.5t-78.5 53.5q-44 0 -72 -50t-28 -128z" />
    <glyph glyph-name="ampersand" unicode="&#x26;" horiz-adv-x="1349" 
d="M508 -31q-205 0 -326 116.5t-121 313.5q0 141 79 245t251 194q-129 223 -129 366q0 138 90 223.5t228 85.5q149 0 230 -73t81 -187q0 -99 -64.5 -180t-236.5 -176q45 -74 133 -195q34 -45 111.5 -155.5t119.5 -165.5q28 78 33 160q2 65 -26.5 105.5t-110.5 47.5v25h414
v-25q-85 -10 -142 -55.5t-80 -110.5q-60 -164 -65 -176q184 -243 268 -243q22 0 37 8t35 30l16 -12q-33 -73 -93 -114t-126 -41q-109 0 -260 182q-136 -193 -346 -193zM258 428q0 -173 86.5 -280t230.5 -107q163 0 263 143q-44 54 -92 122t-107.5 156t-87.5 128
q-84 119 -143 217q-73 -54 -111.5 -142t-38.5 -237zM455 1272q0 -153 116 -346q138 118 138 307q0 118 -33.5 181t-97.5 63q-58 0 -90.5 -57.5t-32.5 -147.5z" />
    <glyph glyph-name="quotesingle" unicode="'" horiz-adv-x="329" 
d="M123 1108q-94 344 -92 412q1 49 32 82.5t74 31.5q49 0 81 -33t30 -81q-3 -81 -98 -412h-27z" />
    <glyph glyph-name="parenleft" unicode="(" horiz-adv-x="536" 
d="M469 -279q-367 291 -367 979q0 743 371 967l23 -25q-242 -236 -242 -931q0 -690 238 -967z" />
    <glyph glyph-name="parenright" unicode=")" horiz-adv-x="536" 
d="M25 -256q237 276 237 967q0 695 -242 931l23 25q371 -224 371 -967q0 -688 -367 -979z" />
    <glyph glyph-name="asterisk" unicode="*" horiz-adv-x="702" 
d="M168 1024q-49 37 -4 96q10 14 34 36.5t60 54t59 53.5q-174 13 -198 20q-71 22 -53 82q19 58 90 35q17 -5 42.5 -19.5t70 -42.5t65.5 -41q-6 34 -17.5 83t-18.5 83t-7 52q0 73 61 73q60 0 60 -73q0 -17 -6 -48.5t-19 -88.5t-18 -81q21 13 65.5 41t70 42.5t42.5 19.5
q71 23 90 -35q18 -59 -51 -82q-26 -7 -203 -20q23 -22 60.5 -54t61.5 -53.5t34 -36.5q45 -59 -4 -96q-49 -36 -93 25q-11 17 -42.5 87t-47.5 101q-19 -34 -49.5 -103t-42.5 -85q-41 -61 -92 -25z" />
    <glyph glyph-name="plus" unicode="+" horiz-adv-x="823" 
d="M391 297v344h-342v37h342v344h41v-344h342v-37h-342v-344h-41z" />
    <glyph glyph-name="comma" unicode="," horiz-adv-x="397" 
d="M61 -258q61 27 114 104.5t61 141.5q-25 -11 -56 -11q-51 0 -85 38.5t-34 99.5q0 60 40 97.5t92 37.5q65 0 104 -47.5t39 -124.5q0 -107 -73 -209t-191 -148z" />
    <glyph glyph-name="hyphen" unicode="-" horiz-adv-x="602" 
d="M41 768v61h520v-61h-520z" />
    <glyph glyph-name="period" unicode="." horiz-adv-x="413" 
d="M197 -20q-56 0 -96 40t-40 95t40 95t96 40q55 0 95 -40t40 -95t-40 -95t-95 -40z" />
    <glyph glyph-name="slash" unicode="/" horiz-adv-x="563" 
d="M61 -125l-45 12l488 1692l43 -12z" />
    <glyph glyph-name="zero" unicode="0" horiz-adv-x="1169" 
d="M592 -20q-255 0 -399 206t-144 559q0 355 143.5 561.5t395.5 206.5q250 0 391 -203t141 -554q0 -357 -140.5 -566.5t-387.5 -209.5zM276 760q0 -343 88 -543.5t254 -200.5q134 0 204.5 189.5t70.5 513.5q0 354 -82 556t-238 202q-98 0 -165 -89.5t-99.5 -248.5
t-32.5 -379z" />
    <glyph glyph-name="one" unicode="1" horiz-adv-x="604" 
d="M41 25q83 9 119.5 41.5t36.5 99.5v1016q0 87 -35 127t-111 30l-4 23q254 95 336 133l18 -12v-1317q0 -68 38.5 -100.5t123.5 -40.5v-25h-522v25z" />
    <glyph glyph-name="two" unicode="2" horiz-adv-x="989" 
d="M57 23q250 317 389.5 532.5t187.5 344.5t48 245q0 125 -58.5 197.5t-179.5 72.5q-171 0 -305 -203l-22 13q79 154 182 221t236 67q170 0 265 -88.5t95 -246.5q0 -114 -57.5 -237.5t-204.5 -308t-414 -462.5l305 4q106 2 175 14.5t112 42t64 69.5t32 103h25l-41 -403h-834
v23z" />
    <glyph glyph-name="three" unicode="3" horiz-adv-x="966" 
d="M397 -20q-82 0 -148.5 13.5t-107 35t-68 49.5t-38 55t-10.5 53q0 52 30.5 87.5t79.5 35.5q37 0 63.5 -21.5t40.5 -54.5t32.5 -70.5t38.5 -70.5t60 -54.5t95 -21.5q106 0 177 119t71 287q0 180 -64 276.5t-190 96.5q-92 0 -168 -43l-12 49q26 3 79 18q287 97 287 367
q0 109 -55 169t-141 60q-82 0 -145.5 -33.5t-139.5 -117.5l-19 14q130 235 359 235q158 0 249 -74t91 -210q0 -219 -273 -371q161 -2 259 -107.5t98 -287.5q0 -74 -16.5 -141t-56 -130.5t-99 -109.5t-151.5 -74t-208 -28z" />
    <glyph glyph-name="four" unicode="4" horiz-adv-x="972" 
d="M348 25q60 5 105 20.5t68 36.5t33.5 42t10.5 42v285h-518v14l703 1026h81l-712 -987l446 4v512l205 76v-586l139 2v-61h-139v-285q0 -47 45 -90.5t131 -50.5v-25h-598v25z" />
    <glyph glyph-name="five" unicode="5" horiz-adv-x="1005" 
d="M430 -20q-192 0 -292.5 60.5t-100.5 145.5q0 52 30.5 87.5t79.5 35.5q37 0 63.5 -21.5t40.5 -54.5t32.5 -70.5t38.5 -70.5t60 -54.5t95 -21.5q108 0 183 123t75 303q0 192 -89 288.5t-234 96.5q-160 0 -271 -108l-24 16q49 428 112 754l682 2l-34 -199q-520 4 -623 4
q-57 -259 -96 -516q70 79 168 120.5t174 41.5q202 0 321 -130t119 -329q0 -143 -60.5 -256.5t-177.5 -180t-272 -66.5z" />
    <glyph glyph-name="six" unicode="6" horiz-adv-x="1028" 
d="M524 -20q-209 0 -342 164.5t-133 430.5q0 155 55.5 302.5t157.5 271.5t256 218t342 140l6 -34q-157 -43 -281.5 -148.5t-199 -246.5t-98.5 -302q55 67 144 114.5t157 47.5q171 0 281 -126t110 -329q0 -127 -54.5 -241t-160.5 -188t-240 -74zM276 637q0 -138 18 -248.5
t46 -178.5t65.5 -113t74.5 -63t75 -18q99 0 159 111.5t60 314.5q0 201 -76.5 293t-201.5 92q-55 0 -116.5 -29.5t-98.5 -72.5q-5 -73 -5 -88z" />
    <glyph glyph-name="seven" unicode="7" horiz-adv-x="978" 
d="M229 0q22 211 79 383t176 382.5t345 534.5l-337 -4q-102 -1 -167.5 -11t-116.5 -37t-81.5 -73t-50.5 -120h-27l60 436h856v-33q-232 -365 -357 -729t-121 -688l-235 -70z" />
    <glyph glyph-name="eight" unicode="8" horiz-adv-x="1042" 
d="M524 -31q-114 0 -205.5 30.5t-150 83.5t-89 122.5t-30.5 150.5q0 128 79.5 225.5t252.5 202.5q-115 93 -179.5 182.5t-64.5 196.5q0 155 107 252.5t284 97.5q193 0 290 -85t97 -216q0 -186 -292 -342q47 -34 68 -50t64 -50t64.5 -56t54.5 -56.5t50 -64t35.5 -66.5
t26 -76.5t7.5 -81.5q0 -76 -29.5 -146.5t-86 -128t-148 -91.5t-205.5 -34zM231 360q0 -163 76 -258.5t228 -95.5q85 0 147 42.5t90.5 106t28.5 136.5q0 36 -10 71.5t-24.5 64.5t-42 62.5t-50 57t-61.5 56.5t-64 52.5t-70.5 54t-68.5 52.5q-179 -123 -179 -402zM330 1237
q0 -40 14.5 -79t36 -70t58.5 -67t69 -62t80 -62q145 92 145 291q0 122 -55.5 205.5t-155.5 83.5q-79 0 -135.5 -74.5t-56.5 -165.5z" />
    <glyph glyph-name="nine" unicode="9" horiz-adv-x="1028" 
d="M162 14q222 61 372 237t197 408q-56 -63 -140.5 -107t-150.5 -44q-171 0 -281 126t-110 329q0 75 20 152.5t60 147.5t94 124.5t127 87t154 32.5q209 0 342 -165t133 -431q0 -208 -94.5 -396t-280.5 -331t-436 -204zM254 1004q0 -201 76.5 -293.5t201.5 -92.5
q52 0 112 28.5t97 68.5q11 83 11 135q0 138 -18 248.5t-46 178.5t-65.5 113t-74.5 62.5t-75 17.5q-97 0 -158 -129.5t-61 -336.5z" />
    <glyph glyph-name="colon" unicode=":" horiz-adv-x="413" 
d="M197 696q-56 0 -96 40t-40 95t40.5 95.5t95.5 40.5t95 -40t40 -96q0 -55 -40 -95t-95 -40zM61 319q0 55 40.5 95.5t95.5 40.5t95 -40t40 -96q0 -55 -40 -95t-95 -40q-56 0 -96 40t-40 95z" />
    <glyph glyph-name="semicolon" unicode=";" horiz-adv-x="397" 
d="M61 -258q61 27 114 104.5t61 141.5q-25 -11 -56 -11q-51 0 -85 38.5t-34 99.5q0 60 40 97.5t92 37.5q65 0 104 -47.5t39 -124.5q0 -107 -73 -209t-191 -148zM61 627q0 55 40 95t96 40q55 0 95 -40t40 -95t-40 -95t-95 -40q-56 0 -96 40t-40 95z" />
    <glyph glyph-name="less" unicode="&#x3c;" horiz-adv-x="792" 
d="M629 322l-527 299v36l527 299l20 -36l-499 -281l499 -281z" />
    <glyph glyph-name="equal" unicode="=" horiz-adv-x="823" 
d="M49 690v37h725v-37h-725zM49 506v37h725v-37h-725z" />
    <glyph glyph-name="greater" unicode="&#x3e;" horiz-adv-x="792" 
d="M164 322l-21 36l500 281l-500 281l21 36l526 -299v-36z" />
    <glyph glyph-name="question" unicode="?" horiz-adv-x="737" 
d="M295 418q-33 71 -30 146t26.5 131t60 125t71 128.5t59 140.5t24.5 162q0 112 -34.5 160.5t-104.5 48.5q-35 0 -62 -18.5t-44.5 -45.5l-35 -54t-42.5 -45.5t-58 -18.5q-44 0 -72 25.5t-28 62.5q0 57 64 103.5t149 46.5q186 0 318 -109.5t132 -261.5q0 -55 -18.5 -107
t-48.5 -92.5t-67.5 -83t-75.5 -79t-72 -79t-58 -83t-33 -92.5t4 -107zM197 115q0 55 39.5 95t95.5 40t95.5 -40t39.5 -95t-39.5 -95t-95.5 -40t-95.5 40t-39.5 95z" />
    <glyph glyph-name="at" unicode="@" horiz-adv-x="1628" 
d="M692 -47q-129 0 -246.5 47.5t-205 130.5t-139.5 204.5t-52 260.5q0 171 51 325t140.5 270t207 201t255.5 129t282 44q259 0 426.5 -152.5t167.5 -388.5q0 -124 -43.5 -241.5t-117.5 -207t-180.5 -144t-225.5 -54.5q-78 0 -109.5 36.5t-23 118.5t58.5 228l14 39
q-62 -131 -119 -219t-105 -130t-84.5 -57.5t-74.5 -15.5q-70 0 -114 64.5t-25 191.5q20 148 86.5 281t172 219t222.5 86q139 0 285 -43l-145 -474q-86 -278 51 -278q103 0 196.5 88.5t147 226t49.5 277.5q-9 232 -156.5 368t-394.5 136q-170 0 -324 -71t-265 -192
t-174 -293.5t-56 -365.5q4 -137 55 -250.5t133.5 -186.5t188 -113t221.5 -40q144 0 275 43.5t227 122.5l16 -20q-112 -99 -253.5 -150t-295.5 -51zM561 596q-7 -80 12 -115t52 -35q21 0 45.5 12.5t66 55.5t85.5 113t103.5 198.5t121.5 298.5q-67 64 -144 64
q-83 0 -158.5 -88.5t-123 -223.5t-60.5 -280z" />
    <glyph glyph-name="A" unicode="A" horiz-adv-x="1413" 
d="M16 25q74 9 129 49.5t97 146.5q85 214 245 675t209 595h29l473 -1307q30 -82 79.5 -117t119.5 -42v-25h-645v25q110 7 159 24t60 52.5t-13 93.5l-69 204h-529q-52 -171 -53 -174q-32 -112 0.5 -150.5t169.5 -49.5v-25h-461v25zM373 438h504l-248 738q-175 -485 -256 -738
z" />
    <glyph glyph-name="B" unicode="B" horiz-adv-x="1210" 
d="M41 25q83 9 119.5 42t36.5 101v1155q0 68 -36.5 101t-119.5 42v25h586q122 0 223.5 -38t166 -116.5t64.5 -183.5q0 -70 -28 -132t-97 -115.5t-172 -76.5q396 -63 396 -397q0 -204 -147 -318t-443 -114h-549v25zM401 168q0 -70 38.5 -101.5t119.5 -31.5h59
q148 0 242 104.5t94 286.5q0 193 -109.5 287t-330.5 94h-113v-639zM401 846h209q246 0 246 289q0 79 -24 142t-63.5 101t-85 58t-91.5 20h-33q-81 0 -119.5 -31.5t-38.5 -101.5v-477z" />
    <glyph glyph-name="C" unicode="C" horiz-adv-x="1189" 
d="M684 -20q-133 0 -246.5 52t-197.5 149t-131.5 246t-47.5 333q0 176 47.5 318.5t132 237.5t202 146t257.5 51q222 0 392 -83l20 -388h-27q-71 241 -166.5 338t-240.5 97q-122 0 -211 -92.5t-133.5 -253.5t-44.5 -371q0 -343 121.5 -526t332.5 -183q118 0 214.5 48.5
t185.5 181.5l26 -19q-85 -146 -205 -214t-280 -68z" />
    <glyph glyph-name="D" unicode="D" horiz-adv-x="1327" 
d="M41 25q83 9 119.5 42t36.5 101v1155q0 68 -36.5 101t-119.5 42v25h565q164 0 294 -59.5t211 -162t123 -233.5t42 -280q0 -354 -179.5 -555t-510.5 -201h-545v25zM401 168q0 -69 38 -101t114 -32h25q150 0 258 91t160.5 243.5t52.5 349.5q0 366 -126.5 551.5t-351.5 185.5
h-18q-76 0 -114 -32t-38 -101v-1155z" />
    <glyph glyph-name="E" unicode="E" horiz-adv-x="1144" 
d="M41 25q83 9 119.5 42t36.5 101v1155q0 68 -36.5 101t-119.5 42v25h995l41 -363h-26q-27 170 -140 249t-319 79h-33q-81 0 -119.5 -31.5t-38.5 -101.5v-463q241 0 316 6q87 8 135 63.5t59 184.5h27v-557h-27q-14 143 -61 199.5t-133 62.5q-10 1 -316 6v-657
q0 -70 38.5 -101.5t119.5 -31.5h80q209 0 320.5 85t138.5 283h26l-41 -403h-1042v25z" />
    <glyph glyph-name="F" unicode="F" horiz-adv-x="1097" 
d="M61 25q65 9 100.5 36t35.5 66v1196q0 68 -36.5 101t-119.5 42v25h995l41 -363h-26q-27 170 -140 249t-319 79h-33q-81 0 -119.5 -31.5t-38.5 -101.5v-504q241 0 316 6q87 8 135 63.5t59 184.5h27v-557h-27q-14 143 -61 199.5t-133 62.5q-10 1 -316 6v-657q0 -88 168 -102
v-25h-508v25z" />
    <glyph glyph-name="G" unicode="G" horiz-adv-x="1384" 
d="M684 -20q-127 0 -238 49t-197.5 143t-137 245.5t-50.5 342.5q0 355 170.5 554t470.5 199q134 0 251 -31t171 -67l21 -360h-27q-69 218 -177 320t-271 102q-185 0 -283 -163.5t-98 -463.5q0 -386 118.5 -606.5t309.5 -220.5q129 0 204.5 63t75.5 172v397q0 60 -43 90
t-153 39v25h542v-25q-141 -16 -141 -129v-655h-26q-20 76 -107 76q-38 0 -74.5 -15t-66 -33t-93.5 -33t-151 -15z" />
    <glyph glyph-name="H" unicode="H" horiz-adv-x="1413" 
d="M41 25q83 9 119.5 41.5t36.5 99.5v1159q0 67 -36.5 99.5t-119.5 41.5v25h522v-25q-85 -8 -123.5 -40.5t-38.5 -100.5v-514h605v514q0 67 -36.5 99.5t-119.5 41.5v25h522v-25q-85 -8 -123.5 -40.5t-38.5 -100.5v-1159q0 -68 38.5 -100.5t123.5 -40.5v-25h-522v25
q83 9 119.5 41.5t36.5 99.5v604h-605v-604q0 -68 38.5 -100.5t123.5 -40.5v-25h-522v25z" />
    <glyph glyph-name="I" unicode="I" horiz-adv-x="604" 
d="M41 25q83 9 119.5 41.5t36.5 99.5v1159q0 67 -36.5 99.5t-119.5 41.5v25h522v-25q-85 -8 -123.5 -40.5t-38.5 -100.5v-1159q0 -68 38.5 -100.5t123.5 -40.5v-25h-522v25z" />
    <glyph glyph-name="J" unicode="J" horiz-adv-x="649" 
d="M-33 -428q-62 0 -117 41.5t-55 103.5q0 48 30.5 77.5t76.5 29.5q32 0 59 -14t46 -34t37.5 -39.5t43 -33.5t53.5 -14q37 0 58 37t32 143.5t11 304.5v1151q0 66 -40 98.5t-136 42.5v25h542v-25q-84 -8 -123 -41t-39 -100v-1120q0 -141 -46 -263.5t-117.5 -201.5
t-154.5 -123.5t-161 -44.5z" />
    <glyph glyph-name="K" unicode="K" horiz-adv-x="1439" 
d="M41 25q83 9 119.5 41.5t36.5 99.5v1159q0 67 -36.5 99.5t-119.5 41.5v25h522v-25q-85 -8 -123.5 -40.5t-38.5 -100.5v-524h2q34 0 248.5 204.5t306.5 333.5q22 32 25 57.5t-35 44t-119 25.5v25h508v-25q-97 -15 -164 -44t-131 -93q-71 -70 -213.5 -212t-212.5 -212
l535 -698q76 -100 131.5 -138t140.5 -44v-25h-604v25q179 18 88 147l-336 469q-86 121 -155 121h-15v-596q0 -68 38.5 -100.5t123.5 -40.5v-25h-522v25z" />
    <glyph glyph-name="L" unicode="L" horiz-adv-x="1144" 
d="M41 25q83 9 119.5 42t36.5 101v1157q0 67 -36.5 99.5t-119.5 41.5v25h522v-25q-85 -8 -123.5 -40.5t-38.5 -100.5v-1157q0 -70 38.5 -101.5t119.5 -31.5h80q209 0 320.5 85t138.5 283h26l-41 -403h-1042v25z" />
    <glyph glyph-name="M" unicode="M" horiz-adv-x="1579" 
d="M25 25q151 19 163 186q11 142 18 321t12.5 425t10.5 376q1 56 -41 90t-94 43v25h324l409 -1028l385 1028h324v-25q-64 -8 -101.5 -41t-37.5 -92l10 -1183q0 -109 158 -125v-25h-508v25q77 10 111 40t34 85l-8 1161l-442 -1188h-31l-449 1161q-1 -34 -5 -160t-5.5 -170.5
t-4.5 -151t-3.5 -164t-2 -142t-1 -152.5t1.5 -133q1 -99 41 -137t147 -49v-25h-415v25z" />
    <glyph glyph-name="N" unicode="N" horiz-adv-x="1341" 
d="M25 25q78 8 116.5 48.5t44.5 135.5q8 159 9 347t-1 432t-1 374q0 40 -42.5 68.5t-115.5 35.5v25h350l727 -1055q0 739 -4 826q-6 96 -56.5 145.5t-162.5 58.5v25h438v-25q-79 -8 -117.5 -47t-44.5 -131q-12 -181 -13.5 -394.5t1.5 -478t2 -415.5h-35l-884 1307
q4 -878 10 -1096q2 -81 45.5 -128.5t150.5 -57.5v-25h-417v25z" />
    <glyph glyph-name="O" unicode="O" horiz-adv-x="1378" 
d="M696 -20q-193 0 -336.5 93.5t-221 266.5t-77.5 405q0 353 170.5 560.5t460.5 207.5q289 0 457 -204t168 -553q0 -355 -168 -565.5t-453 -210.5zM289 760q0 -340 117.5 -542t316.5 -202q168 0 267.5 190.5t99.5 512.5q0 349 -111 553.5t-301 204.5q-180 0 -284.5 -193.5
t-104.5 -523.5z" />
    <glyph glyph-name="P" unicode="P" horiz-adv-x="1173" 
d="M41 25q83 9 119.5 41.5t36.5 99.5v1157q0 68 -36.5 101t-119.5 42v25h627q219 0 347 -100.5t128 -278.5q0 -185 -158 -290t-459 -105h-125v-551q0 -70 45 -102t158 -39v-25h-563v25zM401 754h111q217 0 311.5 77t94.5 263q0 171 -80.5 266.5t-204.5 95.5h-76
q-79 0 -117.5 -32t-38.5 -101v-569z" />
    <glyph glyph-name="Q" unicode="Q" horiz-adv-x="1392" 
d="M1368 -340q-96 0 -195.5 31.5t-177.5 77t-145.5 91t-120.5 78t-80 33.5q-261 11 -424.5 219t-163.5 555q0 353 170.5 560.5t460.5 207.5q287 0 456 -204t169 -553q0 -284 -104.5 -479t-292.5 -267q231 -141 361 -199.5t226 -58.5q48 0 99 23l12 -23q-64 -53 -121 -72.5
t-129 -19.5zM289 760q0 -347 117 -550.5t317 -203.5q169 0 268 192.5t99 520.5q0 349 -111.5 553.5t-300.5 204.5q-180 0 -284.5 -193.5t-104.5 -523.5z" />
    <glyph glyph-name="R" unicode="R" horiz-adv-x="1359" 
d="M41 25q83 9 119.5 41.5t36.5 99.5v1157q0 68 -36.5 101t-119.5 42v25h627q217 0 346 -97t129 -261q0 -133 -109.5 -230.5t-281.5 -124.5l340 -563q59 -97 114 -140t137 -50v-25q-185 -29 -305.5 13.5t-193.5 172.5l-256 455q-68 121 -152 121h-35v-596q0 -70 45 -102
t158 -39v-25h-563v25zM401 801h29q270 0 379 72.5t109 240.5q0 157 -81.5 249.5t-203.5 92.5h-74q-81 0 -119.5 -31.5t-38.5 -101.5v-522z" />
    <glyph glyph-name="S" unicode="S" horiz-adv-x="1079" 
d="M524 -20q-144 0 -277.5 34.5t-185.5 81.5l-20 385h27q64 -221 194 -341t295 -120q135 0 210 72.5t75 204.5q0 70 -33 133t-86.5 110t-122 94.5t-140.5 87.5t-140.5 87.5t-122 94.5t-86.5 110t-33 133q0 159 113.5 262.5t314.5 103.5q275 0 401 -110l21 -313h-27
q-65 190 -176 288.5t-240 98.5q-91 0 -153 -71t-62 -171q0 -64 41.5 -122.5t107 -106t145.5 -95t160 -100t145.5 -110t107 -137t41.5 -169.5q0 -89 -27.5 -162t-84.5 -131t-154.5 -90t-227.5 -32z" />
    <glyph glyph-name="T" unicode="T" horiz-adv-x="1214" 
d="M348 25q83 9 119.5 41.5t36.5 99.5v1290h-49q-338 0 -418 -350h-27l45 385h1104l45 -385h-26q-80 350 -418 350h-51v-1290q0 -68 38.5 -100.5t122.5 -40.5v-25h-522v25z" />
    <glyph glyph-name="U" unicode="U" horiz-adv-x="1384" 
d="M705 -20q-147 0 -249 36.5t-162.5 112t-87 180.5t-26.5 252v764q0 67 -36.5 99.5t-118.5 41.5v25h522v-25q-85 -8 -123.5 -40.5t-38.5 -100.5v-729q0 -150 24.5 -257t73.5 -171t115 -93.5t154 -29.5q391 0 391 467q0 609 -4 748q-4 114 -48 156t-155 50v25h434v-27
q-96 -9 -134 -51t-42 -153q-6 -197 -6 -711q0 -156 -34 -268t-99 -177t-151 -94.5t-199 -29.5z" />
    <glyph glyph-name="V" unicode="V" horiz-adv-x="1413" 
d="M217 1307q-30 82 -80.5 117t-120.5 42v25h650v-25q-110 -7 -159 -24t-60 -52.5t12 -93.5l321 -989q227 618 326 959q32 112 -0.5 150.5t-169.5 49.5v25h461v-25q-73 -9 -125.5 -47t-89.5 -131q-90 -224 -253.5 -698.5t-209.5 -599.5h-31z" />
    <glyph glyph-name="W" unicode="W" horiz-adv-x="2002" 
d="M209 1325q-43 127 -193 141v25h564v-25q-101 -10 -128.5 -42.5t-2.5 -108.5l315 -991l213 581l-152 420q-45 127 -194 141v25h651v-25q-112 -7 -164 -23t-63.5 -47.5t8.5 -80.5l344 -979q31 98 98.5 302.5t112.5 347.5t76 261q17 65 18 103t-17.5 63.5t-56 36.5
t-106.5 16v25h455v-25q-35 -4 -62.5 -13.5t-57.5 -30t-55.5 -59.5t-46.5 -95q-81 -214 -234.5 -692t-189.5 -586h-30l-310 852l-307 -852h-30z" />
    <glyph glyph-name="X" unicode="X" horiz-adv-x="1386" 
d="M16 25q80 7 147 50t113 111q31 45 86.5 135.5t142 237.5t101.5 172l-336 576q-85 146 -225 159v25h576v-27q-73 -6 -107 -22.5t-33 -42.5t19 -60l248 -458q177 307 213 403q60 164 -95 180v27h396v-25q-61 -7 -119.5 -50.5t-104.5 -110.5q-27 -38 -72 -116t-107 -190
t-89 -159l393 -678q70 -122 207 -137v-25h-625v27q61 2 101.5 9.5t60.5 17.5t25.5 25t2 28.5t-14.5 33.5l-291 549q-231 -379 -273 -485q-16 -39 -17.5 -66.5t15.5 -52.5t66 -40t131 -19v-27h-535v25z" />
    <glyph glyph-name="Y" unicode="Y" horiz-adv-x="1277" 
d="M383 25q83 9 119.5 41.5t36.5 99.5v387l-324 754q-35 82 -83 117.5t-116 41.5v25h625v-25q-146 -10 -184 -46.5t-2 -123.5l266 -661q35 84 80 190t68.5 162.5t52.5 131.5t53 147q18 57 20 93t-15.5 58t-49.5 32.5t-88 16.5v25h420v-25q-73 -9 -126.5 -46.5t-91.5 -129.5
q-32 -78 -92.5 -215t-111 -259.5t-97.5 -250.5v-399q0 -68 38.5 -100.5t123.5 -40.5v-25h-522v25z" />
    <glyph glyph-name="Z" unicode="Z" horiz-adv-x="1177" 
d="M61 0v20l781 1436h-238q-206 0 -320 -79t-141 -249h-24l41 363h944v-21l-787 -1435h314q210 0 322 85t139 283h24l-41 -403h-1014z" />
    <glyph glyph-name="bracketleft" unicode="[" horiz-adv-x="468" 
d="M82 -279v1948h326v-37h-193v-1874h193v-37h-326z" />
    <glyph glyph-name="backslash" unicode="\" horiz-adv-x="563" 
d="M502 -125l-486 1692l43 12l488 -1692z" />
    <glyph glyph-name="bracketright" unicode="]" horiz-adv-x="468" 
d="M61 -279v37h193v1874h-193v37h326v-1948h-326z" />
    <glyph glyph-name="asciicircum" unicode="^" horiz-adv-x="634" 
d="M72 969l-31 16l262 506h29l262 -506l-31 -16l-246 374z" />
    <glyph glyph-name="underscore" unicode="_" horiz-adv-x="929" 
d="M41 -39v37h848v-37h-848z" />
    <glyph glyph-name="grave" unicode="`" horiz-adv-x="536" 
d="M432 1665q-73 34 -152 65t-125 49.5t-67 32.5q-37 32 -45.5 68.5t14.5 67.5t59 32.5t74 -24.5q22 -15 56.5 -52t92.5 -102t107 -116z" />
    <glyph glyph-name="a" unicode="a" horiz-adv-x="927" 
d="M254 -20q-94 0 -148.5 57t-54.5 143q0 44 12 79.5t46 74.5t93 75t154.5 76t229.5 82l2 152q8 295 -148 295q-21 0 -38.5 -3.5t-32 -13.5t-24.5 -17t-20.5 -26.5t-15.5 -28t-13.5 -35.5t-10.5 -35t-11 -40q-38 -139 -124 -139q-30 0 -53 28t-23 70q0 102 118 186t277 84
q160 0 233.5 -66.5t69.5 -229.5q-5 -289 -4 -383q1 -128 8 -188t20 -78.5t42 -18.5q39 0 57 29l23 -11q-25 -57 -61.5 -82.5t-96.5 -25.5q-64 0 -105 38.5t-59 129.5q-69 -90 -158.5 -134t-183.5 -44zM248 244q0 -75 36 -117.5t103 -42.5q55 0 110.5 29t94.5 82
q-8 52 -8 133l2 207q-189 -60 -263.5 -127t-74.5 -164z" />
    <glyph glyph-name="b" unicode="b" horiz-adv-x="1081" 
d="M565 -20q-62 0 -121.5 16.5t-105 32.5t-74.5 16q-61 0 -94 -45h-20q6 102 6 197v1173q0 41 -31 67.5t-105 39.5v24l302 98l10 -10v-745q113 200 315 200q165 0 274 -139.5t109 -359.5q0 -143 -38.5 -254t-104.5 -177.5t-147.5 -100t-174.5 -33.5zM340 143
q95 -129 233 -129q110 0 183 120t73 362q0 209 -81 326.5t-201 117.5q-64 0 -117.5 -35.5t-89.5 -97.5v-664z" />
    <glyph glyph-name="c" unicode="c" horiz-adv-x="921" 
d="M504 -20q-200 0 -326.5 145.5t-126.5 406.5q0 120 36 218.5t98 162t143 97.5t172 34q177 0 279 -67t102 -158q0 -45 -26.5 -73.5t-68.5 -28.5q-36 0 -61 22t-37 55t-28.5 71.5t-33.5 71.5t-53 55t-86 22q-107 0 -171 -118t-64 -329q0 -232 95 -355.5t241 -123.5
q164 0 270 137l19 -12q-117 -233 -373 -233z" />
    <glyph glyph-name="d" unicode="d" horiz-adv-x="1042" 
d="M432 -20q-159 0 -270 137t-111 352q0 143 37.5 255.5t102.5 181t147 103.5t176 35q129 0 236 -49v369q0 54 -33 82t-103 31v24l289 98l23 -14v-1317q0 -147 96 -172v-24l-248 -86l-24 14v172q-112 -192 -318 -192zM252 545q0 -221 80.5 -341t202.5 -120q63 0 117 34.5
t89 96.5v576q-31 102 -101.5 162.5t-139.5 60.5q-105 0 -176.5 -120.5t-71.5 -348.5z" />
    <glyph glyph-name="e" unicode="e" horiz-adv-x="942" 
d="M516 -20q-198 0 -331.5 149.5t-133.5 382.5q0 257 125.5 394.5t333.5 137.5q171 0 277 -108t106 -274l-8 -13h-631q-2 -27 -2 -82q0 -224 95 -351.5t259 -127.5q82 0 155.5 40t117.5 101l22 -16q-124 -233 -385 -233zM256 684h446q-1 161 -57 245.5t-151 84.5
q-208 0 -238 -330z" />
    <glyph glyph-name="f" unicode="f" horiz-adv-x="591" 
d="M25 25q64 9 99.5 39.5t35.5 70.5v850h-101v25l101 4q5 92 40.5 182t90.5 160t120.5 125t134.5 84.5t128 29.5q73 0 118.5 -37t45.5 -94q0 -43 -31 -69.5t-78 -26.5q-29 0 -50.5 11t-36 27t-29.5 31.5t-36.5 26.5t-50.5 11q-66 0 -104 -34.5t-58 -124.5t-20 -253v-41
q144 4 223 4v-45q-67 0 -223 8v-854q0 -42 41 -72.5t121 -37.5v-25h-481v25z" />
    <glyph glyph-name="g" unicode="g" horiz-adv-x="978" 
d="M403 -465q-200 1 -296.5 73t-96.5 185q0 66 46.5 125.5t166.5 132.5l-151 209v25q51 39 274 94q-122 32 -191 118t-69 205q0 161 100 251.5t281 90.5q71 0 157.5 -19t129.5 -19q19 0 97.5 2t117.5 2v-45l-224 6q129 -93 129 -256q0 -156 -107.5 -254.5t-287.5 -98.5h-8
q-82 0 -139 -14t-79 -31t-22 -34q0 -27 30 -38.5t79.5 -9.5t112.5 4.5t129.5 5.5t130 -10.5t113.5 -40.5t81.5 -86t32.5 -145q3 -171 -151.5 -300t-385.5 -128zM182 -127q0 -119 78.5 -191t239.5 -73q165 -1 256.5 73t91.5 181q0 48 -14.5 85.5t-46.5 60t-62.5 38t-84.5 20
t-88 7t-98 -3.5t-90.5 -9.5t-86.5 -11.5q-10 -1 -15 -2q-80 -64 -80 -174zM281 717q0 -137 59.5 -230.5t155.5 -93.5q82 0 132 88.5t50 218.5q0 137 -57 225.5t-152 88.5q-85 0 -136.5 -87t-51.5 -210z" />
    <glyph glyph-name="h" unicode="h" horiz-adv-x="1105" 
d="M20 25q64 9 100 39.5t36 70.5v1235q0 41 -31 67.5t-105 39.5v24l302 98l10 -10v-747q46 94 133 148t178 54q155 0 233 -87t78 -291v-531q0 -41 38 -72t104 -38v-25h-461v25q64 9 99.5 39.5t35.5 70.5v461q0 138 -24 214t-67 103t-118 27q-69 0 -130.5 -34t-90.5 -93v-678
q0 -41 37.5 -72t103.5 -38v-25h-461v25z" />
    <glyph glyph-name="i" unicode="i" horiz-adv-x="491" 
d="M20 25q64 9 100 39.5t36 70.5v645q0 43 -32 73t-104 34v24l297 138l23 -15v-899q0 -41 37.5 -72t103.5 -38v-25h-461v25zM117 1331q0 49 35.5 84t83.5 35q49 0 83.5 -34.5t34.5 -84.5t-34.5 -84.5t-83.5 -34.5q-48 0 -83.5 35t-35.5 84z" />
    <glyph glyph-name="j" unicode="j" horiz-adv-x="487" 
d="M-80 -428q-57 0 -106.5 37t-49.5 94q0 43 28 69.5t69 26.5q29 0 52.5 -13.5t40.5 -32.5t33.5 -38.5t38 -33t46.5 -13.5q35 0 55 35t29.5 127t9.5 262v688q0 43 -31.5 73t-103.5 34v24l297 138l22 -15v-913q0 -120 -41.5 -226t-105.5 -175t-139 -108.5t-144 -39.5z
M127 1331q0 49 34.5 84t84.5 35t84.5 -35t34.5 -84t-34.5 -84t-84.5 -35t-84.5 35t-34.5 84z" />
    <glyph glyph-name="k" unicode="k" horiz-adv-x="1097" 
d="M20 25q64 9 100 39.5t36 70.5v1229q0 54 -33 82t-103 31v24l297 98l23 -14v-1036h4q47 0 144 90t190 233q17 26 22.5 46t-2 37t-34.5 28t-74 16v25h405v-25q-82 -15 -137.5 -43t-116.5 -94l-196 -217l354 -491q42 -59 84 -90.5t104 -38.5v-25h-485v25q73 9 83.5 43.5
t-36.5 103.5l-149 221q-49 72 -77 96.5t-61 24.5h-22v-379q0 -41 37.5 -72t103.5 -38v-25h-461v25z" />
    <glyph glyph-name="l" unicode="l" horiz-adv-x="501" 
d="M20 25q64 9 100 39.5t36 70.5v1229q0 54 -33 82t-103 31v24l297 98l23 -14v-1450q0 -41 37.5 -72t103.5 -38v-25h-461v25z" />
    <glyph glyph-name="m" unicode="m" horiz-adv-x="1638" 
d="M20 25q64 9 100 39.5t36 70.5v635q0 71 -34 109.5t-102 38.5v24l293 107l23 -15v-178l2 -4q45 88 127 140t158 52q224 0 274 -221q42 100 129.5 160.5t169.5 60.5q140 0 215.5 -87.5t75.5 -290.5v-531q0 -41 37.5 -72t103.5 -38v-25h-461v25q64 9 100 39.5t36 70.5v461
q0 104 -12 172t-37.5 105.5t-58.5 52t-81 14.5q-63 0 -122 -40.5t-83 -108.5q4 -74 4 -125v-531q0 -41 38 -72t104 -38v-25h-461v25q64 9 99.5 39.5t35.5 70.5v461q0 137 -23 214t-61.5 103.5t-103.5 26.5q-61 0 -117.5 -37t-83.5 -100v-668q0 -41 37.5 -72t103.5 -38v-25
h-461v25z" />
    <glyph glyph-name="n" unicode="n" horiz-adv-x="1118" 
d="M20 25q64 9 100 39.5t36 70.5v635q0 71 -34 109.5t-102 38.5v24l293 107l23 -15v-184q46 88 132 141t181 53q325 0 322 -378l-4 -539q5 -38 42 -66.5t99 -35.5v-25h-461v25q64 9 99.5 39.5t35.5 70.5l4 481q1 95 -13.5 160t-45 100t-68.5 49.5t-92 14.5q-68 0 -134 -38.5
t-93 -98.5v-668q0 -41 37.5 -72t103.5 -38v-25h-461v25z" />
    <glyph glyph-name="o" unicode="o" horiz-adv-x="1030" 
d="M520 -20q-220 0 -344.5 142.5t-124.5 379.5q0 249 124 395.5t343 146.5q217 0 339 -143.5t122 -384.5q0 -243 -122 -389.5t-337 -146.5zM252 520q0 -232 72.5 -371t212.5 -139q80 0 135 63t80.5 169.5t25.5 249.5q0 240 -69 381t-203 141q-125 0 -189.5 -134t-64.5 -360z
" />
    <glyph glyph-name="p" unicode="p" horiz-adv-x="1081" 
d="M20 -395q64 9 100 39.5t36 70.5v1055q0 71 -34 109.5t-102 38.5v24l293 107l23 -15v-174q113 184 313 184q160 0 270.5 -142.5t110.5 -371.5q0 -137 -55.5 -262.5t-160.5 -206.5t-234 -81q-29 0 -57 2.5t-47 5.5t-44.5 10t-36.5 10t-35 11.5t-28 9.5v-314q0 -41 37.5 -72
t103.5 -38v-25h-453v25zM340 188q36 -80 105 -125t137 -45q247 0 247 437q0 235 -80 360t-202 125q-63 0 -117.5 -34.5t-89.5 -96.5v-621z" />
    <glyph glyph-name="q" unicode="q" horiz-adv-x="1071" 
d="M772 -412l-22 15v577q-113 -200 -316 -200q-165 0 -274 139.5t-109 359.5q0 143 38.5 254t104.5 177.5t147.5 100t174.5 33.5q62 0 120.5 -17t105 -33.5t79.5 -16.5q53 0 90 47h21q-6 -102 -6 -197v-1003q0 -55 32.5 -82.5t102.5 -30.5v-24zM252 528q0 -209 81.5 -326.5
t201.5 -117.5q128 0 206 133v664q-95 129 -233 129q-110 0 -183 -120t-73 -362z" />
    <glyph glyph-name="r" unicode="r" horiz-adv-x="808" 
d="M20 25q64 9 100 39.5t36 70.5v635q0 71 -34 109.5t-102 38.5v24l293 107l23 -15v-221q76 100 162 165.5t159 65.5q61 0 101.5 -31.5t40.5 -86.5q0 -41 -28.5 -68t-72.5 -27q-30 0 -81 26t-103 26q-85 0 -174 -111v-637q0 -43 44.5 -73t137.5 -37v-25h-502v25z" />
    <glyph glyph-name="s" unicode="s" horiz-adv-x="827" 
d="M428 -20q-109 0 -209.5 24t-144.5 57v289h20q49 -157 146 -248.5t209 -91.5q85 0 132.5 45t47.5 127q0 48 -29.5 93.5t-77 83t-104.5 75.5t-114.5 78t-105 82t-77 95t-29.5 110q0 112 82 178.5t234 66.5q73 0 165.5 -21t135.5 -50l-29 -260h-21q-45 148 -120 224.5
t-158 76.5q-56 0 -92.5 -34.5t-36.5 -100.5q0 -43 29 -85.5t75 -78.5t102 -73.5t112 -78.5t102 -85.5t75 -101.5t29 -120q0 -117 -93.5 -196.5t-254.5 -79.5z" />
    <glyph glyph-name="t" unicode="t" horiz-adv-x="600" 
d="M362 -20q-57 0 -101 16t-79.5 53t-54 104.5t-18.5 163.5v672h-99v21q172 120 260 278l23 -6v-260q34 0 137 2t133 2v-45q-20 0 -125.5 4t-144.5 4v-602q0 -115 20.5 -182.5t55.5 -93t90 -25.5q34 0 65 13.5t47 29.5l19 -18q-32 -58 -93 -94.5t-135 -36.5z" />
    <glyph glyph-name="u" unicode="u" horiz-adv-x="1073" 
d="M471 -20q-161 0 -238 86.5t-77 291.5v459q0 54 -33 82t-103 31v24l297 99l23 -15v-610q0 -198 49.5 -273t159.5 -75q67 0 136 38t97 95v604q0 55 -32.5 82.5t-102.5 30.5v24l297 99l23 -15v-770q0 -147 96 -172v-24l-248 -86l-24 14v170q-45 -89 -131.5 -139.5
t-188.5 -50.5z" />
    <glyph glyph-name="v" unicode="v" horiz-adv-x="1099" 
d="M176 848q-31 76 -67.5 109.5t-88.5 41.5v25h478v-25q-94 -13 -121 -47.5t2 -101.5l248 -619q191 479 223 613q28 130 -121 155v25h361v-25q-64 -11 -106 -46.5t-75 -112.5q-59 -137 -340 -850h-41z" />
    <glyph glyph-name="w" unicode="w" horiz-adv-x="1486" 
d="M174 848q-26 75 -63.5 109t-90.5 42v25h433v-25q-62 -14 -79 -47.5t5 -101.5l194 -614q47 116 152 395l-82 217q-29 75 -64.5 109t-80.5 42v25h481v-25q-103 -13 -129.5 -45.5t-1.5 -103.5l211 -598q130 385 186 592q15 57 -15.5 100t-101.5 55v25h349v-25
q-63 -10 -101.5 -48.5t-68.5 -110.5q-64 -156 -164 -453t-137 -397h-39l-222 583q-56 -137 -231 -583h-39z" />
    <glyph glyph-name="x" unicode="x" horiz-adv-x="1003" 
d="M20 25q121 16 203 127q67 94 209 323l-252 424q-22 38 -60 66t-71 34v25h455v-27q-73 -9 -95 -41.5t9 -83.5l149 -251q108 163 144 235q27 59 3 95.5t-85 45.5v27h315v-25q-38 -8 -85 -42t-85 -85q-69 -94 -186 -286l250 -424q33 -55 77 -92t78 -45v-25h-456v27
q154 16 94 114l-176 297q-126 -184 -168 -270q-28 -59 -3 -95.5t95 -45.5v-27h-359v25z" />
    <glyph glyph-name="y" unicode="y" horiz-adv-x="1103" 
d="M154 -449q-60 0 -102 36.5t-42 88.5q0 43 24.5 71t65.5 28q40 0 94.5 -42t88.5 -42q94 0 237 332l-364 874q-37 86 -138 102v25h478v-25q-79 -12 -108 -42t-9 -83l239 -632q22 56 77.5 186t91 223.5t65.5 192.5q36 123 -115 155v25h357v-23q-58 -11 -102.5 -51.5
t-82.5 -126.5q-163 -366 -284 -659q-64 -152 -116.5 -257t-110.5 -189.5t-118.5 -125.5t-125.5 -41z" />
    <glyph glyph-name="z" unicode="z" horiz-adv-x="888" 
d="M41 0v20l565 973h-123q-126 0 -221.5 -65.5t-132.5 -175.5h-20l22 272h690v-20l-575 -973h78q194 0 329 73t174 211h21l-35 -315h-772z" />
    <glyph glyph-name="braceleft" unicode="{" horiz-adv-x="598" 
d="M537 -305q-96 8 -159 66t-63 147q0 51 5.5 118.5t5.5 118.5q0 252 -65 387t-179 156v37q113 20 175 144.5t62 336.5q0 44 -5 107.5t-5 107.5q0 107 62.5 176t165.5 78v-37q-49 -10 -73 -61.5t-24 -122.5q0 -46 7.5 -119t7.5 -125q0 -402 -305 -501q305 -92 305 -533
q0 -53 -7.5 -129t-7.5 -129q0 -64 25 -117.5t72 -66.5v-39z" />
    <glyph glyph-name="bar" unicode="|" horiz-adv-x="77" 
d="M16 -147v1708h45v-1708h-45z" />
    <glyph glyph-name="braceright" unicode="}" horiz-adv-x="598" 
d="M61 -266q47 13 72 66.5t25 117.5q0 53 -7.5 129t-7.5 129q0 441 306 533q-306 99 -306 501q0 52 7.5 125t7.5 119q0 71 -24 122.5t-73 61.5v37q103 -9 165.5 -78t62.5 -176q0 -44 -5 -107.5t-5 -107.5q0 -212 62 -336.5t175 -144.5v-37q-114 -21 -179 -156t-65 -387
q0 -51 5.5 -118.5t5.5 -118.5q0 -89 -63 -147t-159 -66v39z" />
    <glyph glyph-name="asciitilde" unicode="~" horiz-adv-x="743" 
d="M520 563q-68 0 -166 43t-166 43q-81 0 -108 -53l-29 4q14 60 59.5 100.5t110.5 40.5q54 0 106 -22t105.5 -44t110.5 -22q90 0 119 56l30 -9q-14 -62 -59.5 -99.5t-112.5 -37.5z" />
    <glyph glyph-name="exclamdown" unicode="&#xa1;" horiz-adv-x="407" 
d="M176 -41q-62 0 -92.5 33.5t-24.5 91.5l105 950h29l104 -950q6 -58 -25.5 -91.5t-95.5 -33.5zM41 1356q0 56 39.5 95.5t95.5 39.5t95.5 -39.5t39.5 -95.5t-39.5 -95.5t-95.5 -39.5t-95.5 39.5t-39.5 95.5z" />
    <glyph glyph-name="cent" unicode="&#xa2;" horiz-adv-x="921" 
d="M467 186q-186 12 -301 157t-115 394q0 115 33 210t90 158.5t132 100t161 41.5v119h45v-117q171 -3 270 -69.5t99 -155.5q0 -45 -26.5 -73.5t-68.5 -28.5q-40 0 -66.5 28.5t-41.5 70t-31.5 83.5t-50 74.5t-84.5 38.5v-914q42 -10 76 -10q164 0 270 137l19 -12
q-115 -231 -365 -234v-137h-45v139zM252 772q0 -180 58.5 -296t156.5 -159v900q-98 -11 -156.5 -128.5t-58.5 -316.5z" />
    <glyph glyph-name="sterling" unicode="&#xa3;" horiz-adv-x="1458" 
d="M223 -31q-137 0 -188 51t-29 130q24 92 120.5 151t238.5 59q38 0 92 -14q43 185 59 397h-180v37h182q1 15 4.5 57.5t5 60.5t5.5 54.5t8.5 61.5t11.5 58t16 65q45 168 178 272t310 104q90 0 191 -29t149 -65l-113 -362h-33q10 108 -5.5 192t-48.5 132t-73 72t-84 24
q-100 0 -171.5 -77t-106.5 -208q-7 -25 -12.5 -49t-9 -50t-6.5 -45t-5 -47.5t-3.5 -43t-2 -46.5t-1 -42t-1 -45.5t-0.5 -43.5h340v-37h-340q-4 -195 -45 -352q-13 -55 -43 -119q79 -37 119.5 -54.5t112.5 -36.5t136 -19q46 0 80.5 5t77.5 21t82.5 51.5t73.5 90.5l26 -13
l-170 -333q-109 -23 -199.5 -24t-151.5 12.5t-113.5 44t-83.5 60t-64 70.5q-137 -178 -336 -178zM197 152q-18 -60 -4.5 -103t55.5 -43q61 0 106.5 63.5t83.5 204.5l4 15q-41 35 -92 35q-52 0 -92 -46.5t-61 -125.5z" />
    <glyph glyph-name="yen" unicode="&#xa5;" horiz-adv-x="1277" 
d="M383 25q83 9 119.5 41.5t36.5 99.5v196h-263v37h263v148h-263v37h250l-311 723q-35 82 -83 117.5t-116 41.5v25h625v-25q-146 -10 -184 -46.5t-2 -123.5l266 -661q35 84 80 190t68.5 162.5t52.5 131.5t53 147q18 57 20 93t-15.5 58t-49.5 32.5t-88 16.5v25h420v-25
q-73 -9 -126.5 -46.5t-91.5 -129.5q-32 -78 -90.5 -210.5t-108 -251.5t-95.5 -244h251v-37h-258v-148h258v-37h-258v-196q0 -68 38.5 -100.5t123.5 -40.5v-25h-522v25z" />
    <glyph glyph-name="section" unicode="&#xa7;" horiz-adv-x="827" 
d="M428 -41q-109 0 -209.5 24t-144.5 58v289h20q49 -157 146 -248.5t209 -91.5q85 0 132.5 45t47.5 127q0 48 -29.5 93.5t-77 83t-104.5 75.5t-114.5 77.5t-105 81.5t-77 95t-29.5 110q0 88 51 149.5t148 84.5q-94 67 -146.5 132.5t-52.5 145.5q0 112 82 179t234 67
q72 0 165 -21.5t136 -50.5l-29 -260h-21q-45 148 -120 224.5t-158 76.5q-56 0 -92.5 -34.5t-36.5 -100.5q0 -43 29 -85.5t75 -78.5t102 -73.5t112 -78.5t102 -85t75 -101t29 -120q0 -76 -42.5 -140t-119.5 -100q77 -63 119.5 -127.5t42.5 -144.5q0 -118 -93.5 -197.5
t-254.5 -79.5zM252 858q0 -35 17.5 -68t55 -66.5t70.5 -58t90 -63t88 -61.5q56 44 56 133q0 26 -8 51t-27.5 50t-36 43t-51 44t-53.5 39.5t-62.5 42.5t-60.5 41q-35 -13 -56.5 -45.5t-21.5 -81.5z" />
    <glyph glyph-name="dieresis" unicode="&#xa8;" horiz-adv-x="737" 
d="M530 1679q-55 0 -95 40t-40 96q0 55 39.5 95t95.5 40t96 -40t40 -95t-40 -95.5t-96 -40.5zM80 1815q0 55 40 95t95 40t95 -40t40 -95q0 -56 -40 -96t-95 -40t-95 40t-40 96z" />
    <glyph glyph-name="copyright" unicode="&#xa9;" horiz-adv-x="1677" 
d="M840 -27q-161 0 -305.5 61t-248 164.5t-164.5 248t-61 305.5q0 160 61 304t164.5 247.5t248 164t305.5 60.5q160 0 304 -60.5t247.5 -164t164 -247.5t60.5 -304q0 -161 -60.5 -305.5t-164 -248t-247.5 -164.5t-304 -61zM96 752q0 -153 58 -291t157.5 -237.5t237.5 -157.5
t291 -58q205 0 375 98.5t268 269.5t98 376t-98 375t-268 268t-375 98t-376 -98t-269.5 -268t-98.5 -375zM399 768q0 120 36 218.5t98 162t143 97.5t172 34q177 0 279 -67t102 -158q0 -46 -26.5 -74.5t-67.5 -28.5q-36 0 -61 22t-37 55t-28.5 71.5t-33.5 71.5t-53 55t-86 22
q-108 0 -172 -118t-64 -328q0 -232 95 -355.5t241 -123.5q164 0 270 137l19 -12q-118 -234 -373 -234q-200 0 -326.5 146t-126.5 407z" />
    <glyph glyph-name="guillemotleft" unicode="&#xab;" horiz-adv-x="1026" 
d="M926 162l-516 330v57l516 330l18 -25l-418 -334l418 -334zM61 492v57l517 330l18 -25l-418 -334l418 -334l-18 -24z" />
    <glyph glyph-name="registered" unicode="&#xae;" horiz-adv-x="772" 
d="M387 854q-142 0 -240 98.5t-98 239.5t98 238.5t240 97.5q140 0 238 -97.5t98 -238.5t-98 -239.5t-238 -98.5zM80 1192q0 -132 88.5 -222.5t218.5 -90.5q129 0 217 90.5t88 222.5q0 131 -88 221t-217 90q-130 0 -218.5 -90t-88.5 -221zM227 1006v6q22 3 31.5 11.5
t9.5 25.5v299q0 17 -9.5 25t-31.5 11v7h162q55 0 89 -26t34 -67q0 -35 -28.5 -60.5t-73.5 -31.5l90 -145q14 -25 28 -36.5t35 -12.5v-6q-92 -15 -129 47l-65 118q-17 31 -39 31h-8v-153q0 -19 11 -27.5t40 -9.5v-6h-146zM322 1212h6q69 0 98 19t29 61q0 40 -21 64t-53 24
h-21q-21 0 -29.5 -7t-8.5 -25v-136z" />
    <glyph glyph-name="macron" unicode="&#xaf;" horiz-adv-x="667" 
d="M61 1665v37h512v-37h-512z" />
    <glyph glyph-name="degree" unicode="&#xb0;" horiz-adv-x="499" 
d="M252 1059q-89 0 -146 61t-57 156q0 98 56 160.5t145 62.5t145 -60.5t56 -156.5q0 -98 -55.5 -160.5t-143.5 -62.5zM145 1286q0 -85 30.5 -137.5t80.5 -52.5q43 0 70.5 50t27.5 128q0 84 -30.5 137t-77.5 53q-44 0 -72.5 -50t-28.5 -128z" />
    <glyph glyph-name="plusminus" unicode="&#xb1;" horiz-adv-x="823" 
d="M391 297v344h-342v37h342v344h41v-344h342v-37h-342v-344h-41zM49 168v37h725v-37h-725z" />
    <glyph glyph-name="acute" unicode="&#xb4;" horiz-adv-x="536" 
d="M41 1686q49 51 107 116t92.5 102t56.5 52q38 26 74 24.5t59 -32.5t14.5 -67.5t-45.5 -68.5q-21 -14 -67 -32.5t-125 -49.5t-152 -65z" />
    <glyph glyph-name="periodcentered" unicode="&#xb7;" horiz-adv-x="393" 
d="M197 594q-56 0 -96 40t-40 95t40 95t96 40q55 0 95 -40t40 -95t-40 -95t-95 -40z" />
    <glyph glyph-name="cedilla" unicode="&#xb8;" horiz-adv-x="503" 
d="M221 -465q-124 0 -180 98l22 21q36 -33 64 -45t61 -12q49 0 77 30.5t28 81.5q0 61 -34.5 89.5t-106.5 33.5l43 195l32 -9l-34 -157q100 22 163.5 -21t63.5 -129q0 -79 -54.5 -127.5t-144.5 -48.5z" />
    <glyph glyph-name="guillemotright" unicode="&#xbb;" horiz-adv-x="1026" 
d="M449 162l-19 24l418 334l-418 334l19 25l516 -330v-57zM82 186l418 334l-418 334l18 25l516 -330v-57l-516 -330z" />
    <glyph glyph-name="questiondown" unicode="&#xbf;" horiz-adv-x="741" 
d="M500 -27q-123 0 -227 50.5t-164 136t-60 184.5q0 55 18.5 107t48.5 92.5t67.5 83t75.5 79t72 79t58 83t33 92.5t-4 107l24 4q33 -71 30 -146t-26.5 -131t-60 -125t-71 -128.5t-59 -140.5t-24.5 -162q0 -112 35 -160.5t105 -48.5q30 0 54 13.5t38.5 33.5t31 44t30.5 44
t36.5 33.5t50.5 13.5q44 0 72.5 -25.5t28.5 -62.5q0 -57 -64 -103.5t-149 -46.5zM270 1374q0 55 40 95t96 40t95.5 -39.5t39.5 -95.5t-39.5 -95.5t-95.5 -39.5t-96 40t-40 95z" />
    <glyph glyph-name="Agrave" unicode="&#xc0;" horiz-adv-x="1413" 
d="M16 25q74 9 129 49.5t97 146.5q85 214 245 675t209 595h29l473 -1307q30 -82 79.5 -117t119.5 -42v-25h-645v25q110 7 159 24t60 52.5t-13 93.5l-69 204h-529q-52 -171 -53 -174q-32 -112 0.5 -150.5t169.5 -49.5v-25h-461v25zM373 438h504l-248 738q-175 -485 -256 -738
zM524 1923q23 31 59 32.5t74 -24.5q22 -15 56.5 -52t92.5 -102t107 -116l-14 -21q-72 34 -151.5 65.5t-125.5 50t-67 32.5q-37 33 -45.5 68.5t14.5 66.5z" />
    <glyph glyph-name="Aacute" unicode="&#xc1;" horiz-adv-x="1413" 
d="M16 25q74 9 129 49.5t97 146.5q85 214 245 675t209 595h29l473 -1307q30 -82 79.5 -117t119.5 -42v-25h-645v25q110 7 159 24t60 52.5t-13 93.5l-69 204h-529q-52 -171 -53 -174q-32 -112 0.5 -150.5t169.5 -49.5v-25h-461v25zM373 438h504l-248 738q-175 -485 -256 -738
zM522 1661q49 51 107 116t92.5 102t56.5 52q38 26 74 24.5t59 -32.5t15 -67t-45 -68q-21 -14 -67 -32.5t-125.5 -50t-151.5 -65.5z" />
    <glyph glyph-name="Acircumflex" unicode="&#xc2;" horiz-adv-x="1413" 
d="M16 25q74 9 129 49.5t97 146.5q85 214 245 675t209 595h29l473 -1307q30 -82 79.5 -117t119.5 -42v-25h-645v25q110 7 159 24t60 52.5t-13 93.5l-69 204h-529q-52 -171 -53 -174q-32 -112 0.5 -150.5t169.5 -49.5v-25h-461v25zM373 438h504l-248 738q-175 -485 -256 -738
zM477 1634l209 283h49l209 -283l-31 -24l-202 205l-203 -205z" />
    <glyph glyph-name="Atilde" unicode="&#xc3;" horiz-adv-x="1413" 
d="M16 25q74 9 129 49.5t97 146.5q85 214 245 675t209 595h29l473 -1307q30 -82 79.5 -117t119.5 -42v-25h-645v25q110 7 159 24t60 52.5t-13 93.5l-69 204h-529q-52 -171 -53 -174q-32 -112 0.5 -150.5t169.5 -49.5v-25h-461v25zM373 438h504l-248 738q-175 -485 -256 -738
zM457 1612q13 59 54 100t101 41q50 0 112 -37t105 -37q83 0 109 56l27 -9q-12 -62 -53.5 -99.5t-102.5 -37.5q-54 0 -120 36t-107 36q-33 0 -60 -14t-39 -39z" />
    <glyph glyph-name="Adieresis" unicode="&#xc4;" horiz-adv-x="1413" 
d="M16 25q74 9 129 49.5t97 146.5q85 214 245 675t209 595h29l473 -1307q30 -82 79.5 -117t119.5 -42v-25h-645v25q110 7 159 24t60 52.5t-13 93.5l-69 204h-529q-52 -171 -53 -174q-32 -112 0.5 -150.5t169.5 -49.5v-25h-461v25zM373 438h504l-248 738q-175 -485 -256 -738
zM418 1769q0 56 40 96t95 40t95 -40t40 -96q0 -55 -40 -95t-95 -40t-95 40t-40 95zM733 1769q0 56 40 96t95 40q56 0 96 -40.5t40 -95.5t-40 -95t-96 -40t-95.5 40t-39.5 95z" />
    <glyph glyph-name="Aring" unicode="&#xc5;" horiz-adv-x="1413" 
d="M16 25q74 9 129 49.5t97 146.5q84 211 241.5 665t210.5 599q-82 8 -133 67.5t-51 149.5q0 98 56 160.5t145 62.5t144.5 -60.5t55.5 -156.5q0 -94 -51 -155.5t-133 -67.5l471 -1301q30 -82 79.5 -117t119.5 -42v-25h-645v25q110 7 159 24t60 52.5t-13 93.5l-69 204h-529
q-52 -171 -53 -174q-32 -112 0.5 -150.5t169.5 -49.5v-25h-461v25zM373 438h504l-248 738q-175 -485 -256 -738zM606 1712q0 -85 30.5 -137.5t80.5 -52.5q43 0 70.5 50t27.5 128q0 84 -30.5 137t-77.5 53q-44 0 -72.5 -50t-28.5 -128z" />
    <glyph glyph-name="AE" unicode="&#xc6;" horiz-adv-x="1787" 
d="M16 25q37 4 65.5 13.5t63.5 31t67.5 64t61.5 104.5l539 1175q-35 44 -129 53v25h995l41 -363h-26q-27 170 -140 249t-319 79h-33q-81 0 -119.5 -31.5t-38.5 -101.5v-463q241 0 316 6q87 8 135 63.5t59 184.5h27v-557h-27q-14 143 -61 199.5t-133 62.5q-10 1 -316 6v-657
q0 -70 38.5 -101.5t119.5 -31.5h80q209 0 320.5 85t138.5 283h26l-41 -403h-1042v25q83 9 119.5 42t36.5 101v231h-445l-78 -174q-25 -56 -29 -91.5t16.5 -58.5t61 -34t111.5 -16v-25h-461v25zM414 438h426v885q0 28 -6 49z" />
    <glyph glyph-name="Ccedilla" unicode="&#xc7;" horiz-adv-x="1189" 
d="M698 -485q-124 0 -180 98l23 20q36 -33 64 -45t61 -12q49 0 76.5 30.5t27.5 82.5q0 61 -34.5 89.5t-106.5 33.5l37 168q-130 4 -240 57.5t-191.5 150.5t-127.5 244t-46 328q0 176 47.5 318.5t132 237.5t202 146t257.5 51q222 0 392 -83l20 -388h-27q-71 241 -166.5 338
t-240.5 97q-122 0 -211 -92.5t-133.5 -253.5t-44.5 -371q0 -343 121.5 -526t332.5 -183q118 0 214.5 48.5t185.5 181.5l26 -19q-162 -276 -469 -282l-30 -140q100 22 163.5 -20.5t63.5 -128.5q0 -79 -54.5 -127.5t-144.5 -48.5z" />
    <glyph glyph-name="Egrave" unicode="&#xc8;" horiz-adv-x="1144" 
d="M41 25q83 9 119.5 42t36.5 101v1155q0 68 -36.5 101t-119.5 42v25h995l41 -363h-26q-27 170 -140 249t-319 79h-33q-81 0 -119.5 -31.5t-38.5 -101.5v-463q241 0 316 6q87 8 135 63.5t59 184.5h27v-557h-27q-14 143 -61 199.5t-133 62.5q-10 1 -316 6v-657
q0 -70 38.5 -101.5t119.5 -31.5h80q209 0 320.5 85t138.5 283h26l-41 -403h-1042v25zM399 1923q23 31 59 32.5t74 -24.5q22 -15 56.5 -52t92.5 -102t107 -116l-14 -21q-72 34 -151.5 65.5t-125.5 50t-67 32.5q-37 33 -45.5 68.5t14.5 66.5z" />
    <glyph glyph-name="Eacute" unicode="&#xc9;" horiz-adv-x="1144" 
d="M41 25q83 9 119.5 42t36.5 101v1155q0 68 -36.5 101t-119.5 42v25h995l41 -363h-26q-27 170 -140 249t-319 79h-33q-81 0 -119.5 -31.5t-38.5 -101.5v-463q241 0 316 6q87 8 135 63.5t59 184.5h27v-557h-27q-14 143 -61 199.5t-133 62.5q-10 1 -316 6v-657
q0 -70 38.5 -101.5t119.5 -31.5h80q209 0 320.5 85t138.5 283h26l-41 -403h-1042v25zM397 1661q49 51 107 116t92.5 102t56.5 52q38 26 74 24.5t59 -32.5t15 -67t-45 -68q-21 -14 -67 -32.5t-125.5 -50t-151.5 -65.5z" />
    <glyph glyph-name="Ecircumflex" unicode="&#xca;" horiz-adv-x="1144" 
d="M41 25q83 9 119.5 42t36.5 101v1155q0 68 -36.5 101t-119.5 42v25h995l41 -363h-26q-27 170 -140 249t-319 79h-33q-81 0 -119.5 -31.5t-38.5 -101.5v-463q241 0 316 6q87 8 135 63.5t59 184.5h27v-557h-27q-14 143 -61 199.5t-133 62.5q-10 1 -316 6v-657
q0 -70 38.5 -101.5t119.5 -31.5h80q209 0 320.5 85t138.5 283h26l-41 -403h-1042v25zM352 1634l209 283h49l209 -283l-31 -24l-202 205l-203 -205z" />
    <glyph glyph-name="Edieresis" unicode="&#xcb;" horiz-adv-x="1144" 
d="M41 25q83 9 119.5 42t36.5 101v1155q0 68 -36.5 101t-119.5 42v25h995l41 -363h-26q-27 170 -140 249t-319 79h-33q-81 0 -119.5 -31.5t-38.5 -101.5v-463q241 0 316 6q87 8 135 63.5t59 184.5h27v-557h-27q-14 143 -61 199.5t-133 62.5q-10 1 -316 6v-657
q0 -70 38.5 -101.5t119.5 -31.5h80q209 0 320.5 85t138.5 283h26l-41 -403h-1042v25zM293 1769q0 56 40 96t95 40t95 -40t40 -96q0 -55 -39.5 -95t-95.5 -40t-95.5 40t-39.5 95zM608 1769q0 56 40 96t95 40t95.5 -40.5t40.5 -95.5t-40 -95t-96 -40q-55 0 -95 40t-40 95z" />
    <glyph glyph-name="Igrave" unicode="&#xcc;" horiz-adv-x="604" 
d="M41 25q83 9 119.5 41.5t36.5 99.5v1159q0 67 -36.5 99.5t-119.5 41.5v25h522v-25q-85 -8 -123.5 -40.5t-38.5 -100.5v-1159q0 -68 38.5 -100.5t123.5 -40.5v-25h-522v25zM113 1923q23 31 59 32.5t74 -24.5q22 -15 56.5 -52t92.5 -102t107 -116l-15 -21
q-72 34 -151.5 65.5t-125.5 50t-67 32.5q-37 32 -45 68t15 67z" />
    <glyph glyph-name="Iacute" unicode="&#xcd;" horiz-adv-x="604" 
d="M41 25q83 9 119.5 41.5t36.5 99.5v1159q0 67 -36.5 99.5t-119.5 41.5v25h522v-25q-85 -8 -123.5 -40.5t-38.5 -100.5v-1159q0 -68 38.5 -100.5t123.5 -40.5v-25h-522v25zM111 1661q49 51 107 116t92.5 102t56.5 52q38 26 74 24.5t59 -32.5t14.5 -66.5t-45.5 -68.5
q-21 -14 -67 -32.5t-125.5 -50t-151.5 -65.5z" />
    <glyph glyph-name="Icircumflex" unicode="&#xce;" horiz-adv-x="604" 
d="M41 25q83 9 119.5 41.5t36.5 99.5v1159q0 67 -36.5 99.5t-119.5 41.5v25h522v-25q-85 -8 -123.5 -40.5t-38.5 -100.5v-1159q0 -68 38.5 -100.5t123.5 -40.5v-25h-522v25zM66 1634l208 283h50l208 -283l-30 -24l-203 205l-203 -205z" />
    <glyph glyph-name="Idieresis" unicode="&#xcf;" horiz-adv-x="604" 
d="M41 25q83 9 119.5 41.5t36.5 99.5v1159q0 67 -36.5 99.5t-119.5 41.5v25h522v-25q-85 -8 -123.5 -40.5t-38.5 -100.5v-1159q0 -68 38.5 -100.5t123.5 -40.5v-25h-522v25zM6 1769q0 56 40 96t95 40t95 -40t40 -96q0 -55 -40 -95t-95 -40t-95 40t-40 95zM322 1769
q0 56 40 96t95 40t95 -40t40 -96q0 -55 -40 -95t-95 -40t-95 40t-40 95z" />
    <glyph glyph-name="Eth" unicode="&#xd0;" horiz-adv-x="1327" 
d="M41 25q83 9 119.5 42t36.5 101v612h-136v37h136v506q0 68 -36.5 101t-119.5 42v25h565q164 0 294 -59.5t211 -162t123 -233.5t42 -280q0 -354 -179.5 -555t-510.5 -201h-545v25zM401 168q0 -69 38 -101t114 -32h25q150 0 258 91t160.5 243.5t52.5 349.5
q0 366 -126.5 551.5t-351.5 185.5h-18q-76 0 -114 -32t-38 -101v-506h271v-37h-271v-612z" />
    <glyph glyph-name="Ntilde" unicode="&#xd1;" horiz-adv-x="1341" 
d="M25 25q78 8 116.5 48.5t44.5 135.5q8 159 9 347t-1 432t-1 374q0 40 -42.5 68.5t-115.5 35.5v25h350l727 -1055q0 739 -4 826q-6 96 -56.5 145.5t-162.5 58.5v25h438v-25q-79 -8 -117.5 -47t-44.5 -131q-12 -181 -13.5 -394.5t1.5 -478t2 -415.5h-35l-884 1307
q4 -878 10 -1096q2 -81 45.5 -128.5t150.5 -57.5v-25h-417v25zM393 1612q13 59 54.5 100t101.5 41q50 0 112 -37t105 -37q82 0 108 56l27 -9q-12 -62 -53.5 -99.5t-102.5 -37.5q-54 0 -120 36t-107 36q-74 0 -98 -53z" />
    <glyph glyph-name="Ograve" unicode="&#xd2;" horiz-adv-x="1378" 
d="M696 -20q-193 0 -336.5 93.5t-221 266.5t-77.5 405q0 353 170.5 560.5t460.5 207.5q289 0 457 -204t168 -553q0 -355 -168 -565.5t-453 -210.5zM289 760q0 -340 117.5 -542t316.5 -202q168 0 267.5 190.5t99.5 512.5q0 349 -111 553.5t-301 204.5q-180 0 -284.5 -193.5
t-104.5 -523.5zM504 1942q23 31 59 32.5t74 -24.5q22 -15 56.5 -52.5t92 -102.5t107.5 -116l-14 -20q-73 34 -152 65t-125 49.5t-67 32.5q-37 32 -45.5 68.5t14.5 67.5z" />
    <glyph glyph-name="Oacute" unicode="&#xd3;" horiz-adv-x="1378" 
d="M696 -20q-193 0 -336.5 93.5t-221 266.5t-77.5 405q0 353 170.5 560.5t460.5 207.5q289 0 457 -204t168 -553q0 -355 -168 -565.5t-453 -210.5zM289 760q0 -340 117.5 -542t316.5 -202q168 0 267.5 190.5t99.5 512.5q0 349 -111 553.5t-301 204.5q-180 0 -284.5 -193.5
t-104.5 -523.5zM502 1679q50 51 107.5 116t92 102.5t56.5 52.5q38 26 74 24.5t59 -32.5t14.5 -67.5t-45.5 -68.5q-21 -14 -67 -32.5t-125 -49.5t-152 -65z" />
    <glyph glyph-name="Ocircumflex" unicode="&#xd4;" horiz-adv-x="1378" 
d="M696 -20q-193 0 -336.5 93.5t-221 266.5t-77.5 405q0 353 170.5 560.5t460.5 207.5q289 0 457 -204t168 -553q0 -355 -168 -565.5t-453 -210.5zM289 760q0 -340 117.5 -542t316.5 -202q168 0 267.5 190.5t99.5 512.5q0 349 -111 553.5t-301 204.5q-180 0 -284.5 -193.5
t-104.5 -523.5zM457 1653l209 282h49l209 -282l-31 -25l-203 205l-203 -205z" />
    <glyph glyph-name="Otilde" unicode="&#xd5;" horiz-adv-x="1378" 
d="M696 -20q-193 0 -336.5 93.5t-221 266.5t-77.5 405q0 353 170.5 560.5t460.5 207.5q289 0 457 -204t168 -553q0 -355 -168 -565.5t-453 -210.5zM289 760q0 -340 117.5 -542t316.5 -202q168 0 267.5 190.5t99.5 512.5q0 349 -111 553.5t-301 204.5q-180 0 -284.5 -193.5
t-104.5 -523.5zM436 1630q13 59 54.5 100.5t101.5 41.5q50 0 112 -37t105 -37q84 0 109 55l26 -8q-12 -62 -53.5 -99.5t-102.5 -37.5q-54 0 -120 35.5t-107 35.5q-74 0 -98 -53z" />
    <glyph glyph-name="Odieresis" unicode="&#xd6;" horiz-adv-x="1378" 
d="M696 -20q-193 0 -336.5 93.5t-221 266.5t-77.5 405q0 353 170.5 560.5t460.5 207.5q289 0 457 -204t168 -553q0 -355 -168 -565.5t-453 -210.5zM289 760q0 -340 117.5 -542t316.5 -202q168 0 267.5 190.5t99.5 512.5q0 349 -111 553.5t-301 204.5q-180 0 -284.5 -193.5
t-104.5 -523.5zM397 1788q0 56 39.5 95.5t95.5 39.5t96 -40t40 -95t-40 -95t-96 -40t-95.5 39.5t-39.5 95.5zM713 1788q0 56 39.5 95.5t95.5 39.5t95.5 -39.5t39.5 -95.5t-39.5 -95.5t-95.5 -39.5t-95.5 39.5t-39.5 95.5z" />
    <glyph glyph-name="multiply" unicode="&#xd7;" horiz-adv-x="708" 
d="M76 354l-27 27l279 278l-279 279l27 27l278 -279l279 279l26 -27l-278 -279l278 -278l-26 -27l-279 279z" />
    <glyph glyph-name="Oslash" unicode="&#xd8;" horiz-adv-x="1378" 
d="M244 -39l-41 25l86 143q-110 99 -169 257t-59 359q0 353 170.5 560.5t460.5 207.5q215 0 363 -114l57 94l39 -23l-59 -100q109 -99 167 -255.5t58 -358.5q0 -355 -168 -565.5t-453 -210.5q-219 0 -370 118zM289 760q0 -293 88 -486l602 998q-113 205 -301 205
q-180 0 -284.5 -193.5t-104.5 -523.5zM401 225q58 -101 140 -155t182 -54q168 0 267.5 190.5t99.5 512.5q0 305 -86 504z" />
    <glyph glyph-name="Ugrave" unicode="&#xd9;" horiz-adv-x="1384" 
d="M705 -20q-147 0 -249 36.5t-162.5 112t-87 180.5t-26.5 252v764q0 67 -36.5 99.5t-118.5 41.5v25h522v-25q-85 -8 -123.5 -40.5t-38.5 -100.5v-729q0 -150 24.5 -257t73.5 -171t115 -93.5t154 -29.5q391 0 391 467q0 609 -4 748q-4 114 -48 156t-155 50v25h434v-27
q-96 -9 -134 -51t-42 -153q-6 -197 -6 -711q0 -156 -34 -268t-99 -177t-151 -94.5t-199 -29.5zM549 1923q23 31 59 32.5t74 -24.5q22 -15 56.5 -52t92.5 -102t107 -116l-14 -21q-72 34 -151.5 65.5t-125.5 50t-67 32.5q-37 33 -45.5 68.5t14.5 66.5z" />
    <glyph glyph-name="Uacute" unicode="&#xda;" horiz-adv-x="1384" 
d="M705 -20q-147 0 -249 36.5t-162.5 112t-87 180.5t-26.5 252v764q0 67 -36.5 99.5t-118.5 41.5v25h522v-25q-85 -8 -123.5 -40.5t-38.5 -100.5v-729q0 -150 24.5 -257t73.5 -171t115 -93.5t154 -29.5q391 0 391 467q0 609 -4 748q-4 114 -48 156t-155 50v25h434v-27
q-96 -9 -134 -51t-42 -153q-6 -197 -6 -711q0 -156 -34 -268t-99 -177t-151 -94.5t-199 -29.5zM547 1661q49 51 107 116t92.5 102t56.5 52q38 26 74 24.5t59 -32.5t14.5 -66.5t-45.5 -68.5q-21 -14 -67 -32.5t-125.5 -50t-151.5 -65.5z" />
    <glyph glyph-name="Ucircumflex" unicode="&#xdb;" horiz-adv-x="1384" 
d="M705 -20q-147 0 -249 36.5t-162.5 112t-87 180.5t-26.5 252v764q0 67 -36.5 99.5t-118.5 41.5v25h522v-25q-85 -8 -123.5 -40.5t-38.5 -100.5v-729q0 -150 24.5 -257t73.5 -171t115 -93.5t154 -29.5q391 0 391 467q0 609 -4 748q-4 114 -48 156t-155 50v25h434v-27
q-96 -9 -134 -51t-42 -153q-6 -197 -6 -711q0 -156 -34 -268t-99 -177t-151 -94.5t-199 -29.5zM502 1634l209 283h49l209 -283l-31 -24l-203 205l-203 -205z" />
    <glyph glyph-name="Udieresis" unicode="&#xdc;" horiz-adv-x="1384" 
d="M705 -20q-147 0 -249 36.5t-162.5 112t-87 180.5t-26.5 252v764q0 67 -36.5 99.5t-118.5 41.5v25h522v-25q-85 -8 -123.5 -40.5t-38.5 -100.5v-729q0 -150 24.5 -257t73.5 -171t115 -93.5t154 -29.5q391 0 391 467q0 609 -4 748q-4 114 -48 156t-155 50v25h434v-27
q-96 -9 -134 -51t-42 -153q-6 -197 -6 -711q0 -156 -34 -268t-99 -177t-151 -94.5t-199 -29.5zM442 1769q0 55 40 95.5t96 40.5q55 0 95 -40t40 -96q0 -55 -39.5 -95t-95.5 -40t-96 40t-40 95zM758 1769q0 56 40 96t95 40t95 -40t40 -96q0 -55 -40 -95t-95 -40t-95 40
t-40 95z" />
    <glyph glyph-name="Yacute" unicode="&#xdd;" horiz-adv-x="1277" 
d="M383 25q83 9 119.5 41.5t36.5 99.5v387l-324 754q-35 82 -83 117.5t-116 41.5v25h625v-25q-146 -10 -184 -46.5t-2 -123.5l266 -661q35 84 80 190t68.5 162.5t52.5 131.5t53 147q18 57 20 93t-15.5 58t-49.5 32.5t-88 16.5v25h420v-25q-73 -9 -126.5 -46.5t-91.5 -129.5
q-32 -78 -92.5 -215t-111 -259.5t-97.5 -250.5v-399q0 -68 38.5 -100.5t123.5 -40.5v-25h-522v25zM524 1661q49 51 107 116t92.5 102t56.5 52q38 26 74 24.5t59 -32.5t15 -67t-45 -68q-21 -14 -67 -32.5t-125.5 -50t-151.5 -65.5z" />
    <glyph glyph-name="Thorn" unicode="&#xde;" horiz-adv-x="1181" 
d="M41 25q83 9 119.5 41.5t36.5 99.5v1159q0 67 -36.5 99.5t-119.5 41.5v25h522v-25q-85 -8 -123.5 -40.5t-38.5 -100.5v-182h275q219 0 347 -100.5t128 -278.5q0 -185 -158 -290t-458 -105h-134v-203q0 -68 38.5 -100.5t123.5 -40.5v-25h-522v25zM401 406h119
q217 0 311.5 76.5t94.5 262.5q0 171 -80.5 267t-204.5 96h-240v-702z" />
    <glyph glyph-name="germandbls" unicode="&#xdf;" horiz-adv-x="1212" 
d="M827 -20q-147 0 -237 49l31 47q72 -66 194 -66q92 0 141.5 50t49.5 147q0 50 -34.5 102t-85.5 95t-111.5 94.5t-111.5 100.5t-85.5 114.5t-34.5 134.5q0 90 62.5 167t178.5 150q32 67 25.5 129t-38 109.5t-86.5 75.5t-120 28q-75 0 -112 -36t-52.5 -123t-15.5 -261v-921
q0 -68 38.5 -100.5t123.5 -40.5v-25h-522v25q82 9 118.5 41.5t36.5 99.5v819h-100v25l100 10q6 120 54 229.5t117.5 184.5t152 119t160.5 44q103 0 179 -51.5t105 -133t6 -169.5q-129 -92 -177 -166.5t-48 -161.5q0 -55 24 -105.5t62 -91t84 -79.5t92 -80t84 -84t62 -99.5
t24 -119.5q0 -112 -95.5 -194t-238.5 -82z" />
    <glyph glyph-name="agrave" unicode="&#xe0;" horiz-adv-x="927" 
d="M254 -20q-94 0 -148.5 57t-54.5 143q0 44 12 79.5t46 74.5t93 75t154.5 76t229.5 82l2 152q8 295 -148 295q-21 0 -38.5 -3.5t-32 -13.5t-24.5 -17t-20.5 -26.5t-15.5 -28t-13.5 -35.5t-10.5 -35t-11 -40q-38 -139 -124 -139q-30 0 -53 28t-23 70q0 102 118 186t277 84
q160 0 233.5 -66.5t69.5 -229.5q-5 -289 -4 -383q1 -128 8 -188t20 -78.5t42 -18.5q39 0 57 29l23 -11q-25 -57 -61.5 -82.5t-96.5 -25.5q-64 0 -105 38.5t-59 129.5q-69 -90 -158.5 -134t-183.5 -44zM248 244q0 -75 36 -117.5t103 -42.5q55 0 110.5 29t94.5 82
q-8 52 -8 133l2 207q-189 -60 -263.5 -127t-74.5 -164zM279 1477q23 31 59 32.5t74 -24.5q22 -15 56.5 -52.5t92 -102.5t107.5 -116l-15 -20q-73 34 -152 65t-125 49.5t-67 32.5q-37 32 -45 68.5t15 67.5z" />
    <glyph glyph-name="aacute" unicode="&#xe1;" horiz-adv-x="927" 
d="M254 -20q-94 0 -148.5 57t-54.5 143q0 44 12 79.5t46 74.5t93 75t154.5 76t229.5 82l2 152q8 295 -148 295q-21 0 -38.5 -3.5t-32 -13.5t-24.5 -17t-20.5 -26.5t-15.5 -28t-13.5 -35.5t-10.5 -35t-11 -40q-38 -139 -124 -139q-30 0 -53 28t-23 70q0 102 118 186t277 84
q160 0 233.5 -66.5t69.5 -229.5q-5 -289 -4 -383q1 -128 8 -188t20 -78.5t42 -18.5q39 0 57 29l23 -11q-25 -57 -61.5 -82.5t-96.5 -25.5q-64 0 -105 38.5t-59 129.5q-69 -90 -158.5 -134t-183.5 -44zM248 244q0 -75 36 -117.5t103 -42.5q55 0 110.5 29t94.5 82
q-8 52 -8 133l2 207q-189 -60 -263.5 -127t-74.5 -164zM276 1214q50 51 107.5 116t92 102.5t56.5 52.5q38 26 74.5 24.5t59.5 -32.5t14.5 -67.5t-45.5 -68.5q-21 -14 -67 -32.5t-125 -49.5t-152 -65z" />
    <glyph glyph-name="acircumflex" unicode="&#xe2;" horiz-adv-x="927" 
d="M254 -20q-94 0 -148.5 57t-54.5 143q0 44 12 79.5t46 74.5t93 75t154.5 76t229.5 82l2 152q8 295 -148 295q-21 0 -38.5 -3.5t-32 -13.5t-24.5 -17t-20.5 -26.5t-15.5 -28t-13.5 -35.5t-10.5 -35t-11 -40q-38 -139 -124 -139q-30 0 -53 28t-23 70q0 102 118 186t277 84
q160 0 233.5 -66.5t69.5 -229.5q-5 -289 -4 -383q1 -128 8 -188t20 -78.5t42 -18.5q39 0 57 29l23 -11q-25 -57 -61.5 -82.5t-96.5 -25.5q-64 0 -105 38.5t-59 129.5q-69 -90 -158.5 -134t-183.5 -44zM231 1188l209 282h49l209 -282l-30 -25l-203 205l-203 -205zM248 244
q0 -75 36 -117.5t103 -42.5q55 0 110.5 29t94.5 82q-8 52 -8 133l2 207q-189 -60 -263.5 -127t-74.5 -164z" />
    <glyph glyph-name="atilde" unicode="&#xe3;" horiz-adv-x="927" 
d="M254 -20q-94 0 -148.5 57t-54.5 143q0 44 12 79.5t46 74.5t93 75t154.5 76t229.5 82l2 152q8 295 -148 295q-21 0 -38.5 -3.5t-32 -13.5t-24.5 -17t-20.5 -26.5t-15.5 -28t-13.5 -35.5t-10.5 -35t-11 -40q-38 -139 -124 -139q-30 0 -53 28t-23 70q0 102 118 186t277 84
q160 0 233.5 -66.5t69.5 -229.5q-5 -289 -4 -383q1 -128 8 -188t20 -78.5t42 -18.5q39 0 57 29l23 -11q-25 -57 -61.5 -82.5t-96.5 -25.5q-64 0 -105 38.5t-59 129.5q-69 -90 -158.5 -134t-183.5 -44zM211 1165q13 59 54.5 100.5t101.5 41.5q50 0 112 -37t105 -37
q83 0 108 55l27 -8q-12 -62 -53.5 -99.5t-102.5 -37.5q-54 0 -120 35.5t-107 35.5q-74 0 -98 -53zM248 244q0 -75 36 -117.5t103 -42.5q55 0 110.5 29t94.5 82q-8 52 -8 133l2 207q-189 -60 -263.5 -127t-74.5 -164z" />
    <glyph glyph-name="adieresis" unicode="&#xe4;" horiz-adv-x="927" 
d="M254 -20q-94 0 -148.5 57t-54.5 143q0 44 12 79.5t46 74.5t93 75t154.5 76t229.5 82l2 152q8 295 -148 295q-21 0 -38.5 -3.5t-32 -13.5t-24.5 -17t-20.5 -26.5t-15.5 -28t-13.5 -35.5t-10.5 -35t-11 -40q-38 -139 -124 -139q-30 0 -53 28t-23 70q0 102 118 186t277 84
q160 0 233.5 -66.5t69.5 -229.5q-5 -289 -4 -383q1 -128 8 -188t20 -78.5t42 -18.5q39 0 57 29l23 -11q-25 -57 -61.5 -82.5t-96.5 -25.5q-64 0 -105 38.5t-59 129.5q-69 -90 -158.5 -134t-183.5 -44zM172 1323q0 55 40 95t95 40t95 -40t40 -95t-40 -95t-95 -40t-95 40
t-40 95zM248 244q0 -75 36 -117.5t103 -42.5q55 0 110.5 29t94.5 82q-8 52 -8 133l2 207q-189 -60 -263.5 -127t-74.5 -164zM487 1323q0 55 40 95t96 40q55 0 95 -40t40 -95t-40 -95t-95 -40q-56 0 -96 40t-40 95z" />
    <glyph glyph-name="aring" unicode="&#xe5;" horiz-adv-x="927" 
d="M254 -20q-94 0 -148.5 57t-54.5 143q0 44 12 79.5t46 74.5t93 75t154.5 76t229.5 82l2 152q8 295 -148 295q-21 0 -38.5 -3.5t-32 -13.5t-24.5 -17t-20.5 -26.5t-15.5 -28t-13.5 -35.5t-10.5 -35t-11 -40q-38 -139 -124 -139q-30 0 -53 28t-23 70q0 102 118 186t277 84
q160 0 233.5 -66.5t69.5 -229.5q-5 -289 -4 -383q1 -128 8 -188t20 -78.5t42 -18.5q39 0 57 29l23 -11q-25 -57 -61.5 -82.5t-96.5 -25.5q-64 0 -105 38.5t-59 129.5q-69 -90 -158.5 -134t-183.5 -44zM248 244q0 -75 36 -117.5t103 -42.5q55 0 110.5 29t94.5 82
q-8 52 -8 133l2 207q-189 -60 -263.5 -127t-74.5 -164zM264 1317q0 98 56 160.5t145 62.5t145 -60.5t56 -156.5q0 -98 -55.5 -160.5t-143.5 -62.5q-89 0 -146 61t-57 156zM360 1327q0 -85 30.5 -137.5t80.5 -52.5q43 0 70.5 50t27.5 128q0 84 -30.5 137t-77.5 53
q-44 0 -72.5 -50t-28.5 -128z" />
    <glyph glyph-name="ae" unicode="&#xe6;" horiz-adv-x="1470" 
d="M254 -20q-94 0 -148.5 57t-54.5 143q0 56 20.5 99t76 90.5t162.5 95t272 100.5q0 21 4 53l2 101q8 295 -148 295q-21 0 -38.5 -3.5t-32 -13.5t-24.5 -17t-20.5 -26.5t-15.5 -28t-13.5 -35.5t-10.5 -35t-11 -40q-38 -139 -124 -139q-30 0 -53 28t-23 70q0 102 118 186
t277 84q203 0 266 -108q117 108 303 108q171 0 277 -108t106 -274l-8 -13h-631q-2 -27 -2 -82q0 -224 95.5 -351.5t259.5 -127.5q82 0 155 40t117 101l23 -16q-124 -233 -386 -233q-122 0 -224 60.5t-165 168.5q-184 -229 -401 -229zM248 244q0 -75 36 -117.5t103 -42.5
q128 0 254 152q-61 122 -61 276v20q-185 -58 -258.5 -124.5t-73.5 -163.5zM784 684h447q-1 160 -57.5 245t-151.5 85q-208 0 -238 -330z" />
    <glyph glyph-name="ccedilla" unicode="&#xe7;" horiz-adv-x="921" 
d="M518 -465q-124 0 -180 98l22 21q36 -33 64 -45t61 -12q49 0 77 30.5t28 81.5q0 61 -34.5 89.5t-106.5 33.5l32 148q-192 9 -311 153.5t-119 398.5q0 120 36 218.5t98 162t143 97.5t172 34q177 0 279 -67t102 -158q0 -45 -26.5 -73.5t-68.5 -28.5q-36 0 -61 22t-37 55
t-28.5 71.5t-33.5 71.5t-53 55t-86 22q-107 0 -171 -118t-64 -329q0 -232 95 -355.5t241 -123.5q164 0 270 137l19 -12q-114 -227 -361 -233l-27 -119q100 22 164 -21t64 -129q0 -79 -54.5 -127.5t-144.5 -48.5z" />
    <glyph glyph-name="egrave" unicode="&#xe8;" horiz-adv-x="942" 
d="M516 -20q-198 0 -331.5 149.5t-133.5 382.5q0 257 125.5 394.5t333.5 137.5q171 0 277 -108t106 -274l-8 -13h-631q-2 -27 -2 -82q0 -224 95 -351.5t259 -127.5q82 0 155.5 40t117.5 101l22 -16q-124 -233 -385 -233zM256 684h446q-1 161 -57 245.5t-151 84.5
q-208 0 -238 -330zM311 1483q23 31 59 32.5t74 -24.5q22 -15 56.5 -52t92.5 -102t107 -116l-14 -21q-72 34 -151.5 65.5t-125.5 50t-67 32.5q-37 33 -45.5 68.5t14.5 66.5z" />
    <glyph glyph-name="eacute" unicode="&#xe9;" horiz-adv-x="942" 
d="M516 -20q-198 0 -331.5 149.5t-133.5 382.5q0 257 125.5 394.5t333.5 137.5q171 0 277 -108t106 -274l-8 -13h-631q-2 -27 -2 -82q0 -224 95 -351.5t259 -127.5q82 0 155.5 40t117.5 101l22 -16q-124 -233 -385 -233zM256 684h446q-1 161 -57 245.5t-151 84.5
q-208 0 -238 -330zM309 1221q49 51 107 116t92.5 102t56.5 52q38 26 74 24.5t59 -32.5t15 -67t-45 -68q-21 -14 -67 -32.5t-125.5 -50t-151.5 -65.5z" />
    <glyph glyph-name="ecircumflex" unicode="&#xea;" horiz-adv-x="942" 
d="M516 -20q-198 0 -331.5 149.5t-133.5 382.5q0 257 125.5 394.5t333.5 137.5q171 0 277 -108t106 -274l-8 -13h-631q-2 -27 -2 -82q0 -224 95 -351.5t259 -127.5q82 0 155.5 40t117.5 101l22 -16q-124 -233 -385 -233zM256 684h446q-1 161 -57 245.5t-151 84.5
q-208 0 -238 -330zM264 1194l209 283h49l209 -283l-31 -25l-202 205l-203 -205z" />
    <glyph glyph-name="edieresis" unicode="&#xeb;" horiz-adv-x="942" 
d="M516 -20q-198 0 -331.5 149.5t-133.5 382.5q0 257 125.5 394.5t333.5 137.5q171 0 277 -108t106 -274l-8 -13h-631q-2 -27 -2 -82q0 -224 95 -351.5t259 -127.5q82 0 155.5 40t117.5 101l22 -16q-124 -233 -385 -233zM205 1329q0 55 39.5 95t95.5 40t95.5 -40t39.5 -95
t-39.5 -95t-95.5 -40t-95.5 40t-39.5 95zM256 684h446q-1 161 -57 245.5t-151 84.5q-208 0 -238 -330zM520 1329q0 55 40 95t95 40q56 0 96 -40t40 -95t-40 -95t-96 -40q-55 0 -95 40t-40 95z" />
    <glyph glyph-name="igrave" unicode="&#xec;" horiz-adv-x="491" 
d="M20 25q64 9 100 39.5t36 70.5v631q0 43 -32 72.5t-104 33.5v25l297 137l23 -14v-885q0 -41 37.5 -72t103.5 -38v-25h-461v25zM61 1456q23 31 59.5 32.5t74.5 -24.5q22 -15 56.5 -52t92.5 -102t107 -116l-15 -20q-73 34 -152 65t-125 49.5t-67 32.5q-37 33 -45.5 68.5
t14.5 66.5z" />
    <glyph glyph-name="iacute" unicode="&#xed;" horiz-adv-x="491" 
d="M20 25q64 9 100 39.5t36 70.5v631q0 43 -32 72.5t-104 33.5v25l297 137l23 -14v-885q0 -41 37.5 -72t103.5 -38v-25h-461v25zM59 1194q49 51 107 116t92.5 102t56.5 52q38 26 74.5 24.5t59.5 -32.5t14.5 -66.5t-45.5 -68.5q-21 -14 -67 -32.5t-125 -49.5t-152 -65z" />
    <glyph glyph-name="icircumflex" unicode="&#xee;" horiz-adv-x="491" 
d="M20 25q64 9 100 39.5t36 70.5v631q0 43 -32 72.5t-104 33.5v25l297 137l23 -14v-885q0 -41 37.5 -72t103.5 -38v-25h-461v25zM14 1167l209 283h49l209 -283l-30 -24l-203 205l-203 -205z" />
    <glyph glyph-name="idieresis" unicode="&#xef;" horiz-adv-x="491" 
d="M20 25q64 9 100 39.5t36 70.5v631q0 43 -32 72.5t-104 33.5v25l297 137l23 -14v-885q0 -41 37.5 -72t103.5 -38v-25h-461v25zM-45 1303q0 55 39.5 95t95.5 40t95.5 -40t39.5 -95q0 -56 -40 -96t-95 -40t-95 40t-40 96zM270 1303q0 55 40 95t96 40t95.5 -40t39.5 -95
q0 -56 -40 -96t-95 -40q-56 0 -96 40.5t-40 95.5z" />
    <glyph glyph-name="eth" unicode="&#xf0;" horiz-adv-x="1021" 
d="M475 -20q-187 0 -305.5 135t-118.5 354q0 143 37.5 255.5t102.5 181t147 103.5t176 35t186 -30q-25 120 -63 205l-115 -97l-24 29l120 102q-83 170 -241 246l10 25q204 -55 338 -183l170 146l25 -29l-168 -143q209 -221 209 -600q0 -345 -120 -540t-366 -195zM252 545
q0 -154 29 -273t85.5 -187.5t131.5 -68.5q49 0 86.5 22t63 64.5t42.5 96t26.5 126.5t13 145.5t3.5 162.5q0 106 -10 219q-43 80 -105 121t-118 41q-105 0 -176.5 -120.5t-71.5 -348.5z" />
    <glyph glyph-name="ntilde" unicode="&#xf1;" horiz-adv-x="1118" 
d="M20 25q64 9 100 39.5t36 70.5v635q0 71 -34 109.5t-102 38.5v24l293 107l23 -15v-184q46 88 132 141t181 53q325 0 322 -378l-4 -539q5 -38 42 -66.5t99 -35.5v-25h-461v25q64 9 99.5 39.5t35.5 70.5l4 481q1 95 -13.5 160t-45 100t-68.5 49.5t-92 14.5q-68 0 -134 -38.5
t-93 -98.5v-668q0 -41 37.5 -72t103.5 -38v-25h-461v25zM338 1165q13 59 54.5 100.5t101.5 41.5q50 0 112 -37t105 -37q83 0 108 55l27 -8q-12 -62 -53.5 -99.5t-102.5 -37.5q-54 0 -120 35.5t-107 35.5q-74 0 -98 -53z" />
    <glyph glyph-name="ograve" unicode="&#xf2;" horiz-adv-x="1030" 
d="M520 -20q-220 0 -344.5 142.5t-124.5 379.5q0 249 124 395.5t343 146.5q217 0 339 -143.5t122 -384.5q0 -243 -122 -389.5t-337 -146.5zM252 520q0 -232 72.5 -371t212.5 -139q80 0 135 63t80.5 169.5t25.5 249.5q0 240 -69 381t-203 141q-125 0 -189.5 -134t-64.5 -360z
M332 1477q23 31 59 32.5t74 -24.5q22 -15 56.5 -52.5t92 -102.5t107.5 -116l-14 -20q-73 34 -152 65t-125.5 49.5t-67.5 32.5q-37 32 -45 68.5t15 67.5z" />
    <glyph glyph-name="oacute" unicode="&#xf3;" horiz-adv-x="1030" 
d="M520 -20q-220 0 -344.5 142.5t-124.5 379.5q0 249 124 395.5t343 146.5q217 0 339 -143.5t122 -384.5q0 -243 -122 -389.5t-337 -146.5zM252 520q0 -232 72.5 -371t212.5 -139q80 0 135 63t80.5 169.5t25.5 249.5q0 240 -69 381t-203 141q-125 0 -189.5 -134t-64.5 -360z
M330 1214q50 51 107.5 116t92 102.5t56.5 52.5q38 26 74 24.5t59 -32.5t14.5 -67.5t-45.5 -68.5q-21 -14 -67 -32.5t-125 -49.5t-152 -65z" />
    <glyph glyph-name="ocircumflex" unicode="&#xf4;" horiz-adv-x="1030" 
d="M520 -20q-220 0 -344.5 142.5t-124.5 379.5q0 249 124 395.5t343 146.5q217 0 339 -143.5t122 -384.5q0 -243 -122 -389.5t-337 -146.5zM252 520q0 -232 72.5 -371t212.5 -139q80 0 135 63t80.5 169.5t25.5 249.5q0 240 -69 381t-203 141q-125 0 -189.5 -134t-64.5 -360z
M285 1188l209 282h49l209 -282l-31 -25l-203 205l-203 -205z" />
    <glyph glyph-name="otilde" unicode="&#xf5;" horiz-adv-x="1030" 
d="M520 -20q-220 0 -344.5 142.5t-124.5 379.5q0 249 124 395.5t343 146.5q217 0 339 -143.5t122 -384.5q0 -243 -122 -389.5t-337 -146.5zM252 520q0 -232 72.5 -371t212.5 -139q80 0 135 63t80.5 169.5t25.5 249.5q0 240 -69 381t-203 141q-125 0 -189.5 -134t-64.5 -360z
M264 1165q13 59 54.5 100.5t101.5 41.5q50 0 112 -37t105 -37q83 0 108 55l27 -8q-12 -62 -53.5 -99.5t-102.5 -37.5q-54 0 -120 35.5t-107 35.5q-74 0 -98 -53z" />
    <glyph glyph-name="odieresis" unicode="&#xf6;" horiz-adv-x="1030" 
d="M520 -20q-220 0 -344.5 142.5t-124.5 379.5q0 249 124 395.5t343 146.5q217 0 339 -143.5t122 -384.5q0 -243 -122 -389.5t-337 -146.5zM225 1323q0 55 39.5 95t95.5 40t96 -40t40 -95t-40 -95t-96 -40t-95.5 40t-39.5 95zM252 520q0 -232 72.5 -371t212.5 -139
q80 0 135 63t80.5 169.5t25.5 249.5q0 240 -69 381t-203 141q-125 0 -189.5 -134t-64.5 -360zM541 1323q0 55 39.5 95t95.5 40t95.5 -40t39.5 -95t-39.5 -95t-95.5 -40t-95.5 40t-39.5 95z" />
    <glyph glyph-name="divide" unicode="&#xf7;" horiz-adv-x="823" 
d="M49 641v37h725v-37h-725zM340 414q0 31 21.5 52t52.5 21q29 0 50 -21t21 -52q0 -29 -21 -50.5t-50 -21.5q-31 0 -52.5 21.5t-21.5 50.5zM340 905q0 31 21.5 52.5t52.5 21.5q29 0 50 -21.5t21 -52.5q0 -29 -21 -50t-50 -21q-31 0 -52.5 21t-21.5 50z" />
    <glyph glyph-name="oslash" unicode="&#xf8;" horiz-adv-x="1030" 
d="M207 -55l-37 20l61 105q-88 67 -134 178t-46 254q0 249 124 395.5t343 146.5q150 0 254 -69l53 88l35 -21l-55 -92q85 -67 129.5 -179t44.5 -255q0 -243 -122 -389.5t-337 -146.5q-148 0 -254 65zM252 520q0 -197 53 -330l406 680q-72 144 -205 144q-125 0 -189.5 -134
t-64.5 -360zM326 145q74 -135 211 -135q80 0 135 63t80.5 169.5t25.5 249.5q0 201 -47 331z" />
    <glyph glyph-name="ugrave" unicode="&#xf9;" horiz-adv-x="1073" 
d="M471 -20q-161 0 -238 86.5t-77 291.5v459q0 54 -33 82t-103 31v24l297 99l23 -15v-610q0 -198 49.5 -273t159.5 -75q67 0 136 38t97 95v604q0 55 -32.5 82.5t-102.5 30.5v24l297 99l23 -15v-770q0 -147 96 -172v-24l-248 -86l-24 14v170q-45 -89 -131.5 -139.5
t-188.5 -50.5zM371 1456q23 31 59 32.5t74 -24.5q22 -15 56.5 -52t92.5 -102t107 -116l-15 -20q-73 34 -152 65t-125 49.5t-67 32.5q-37 32 -45 68t15 67z" />
    <glyph glyph-name="uacute" unicode="&#xfa;" horiz-adv-x="1073" 
d="M471 -20q-161 0 -238 86.5t-77 291.5v459q0 54 -33 82t-103 31v24l297 99l23 -15v-610q0 -198 49.5 -273t159.5 -75q67 0 136 38t97 95v604q0 55 -32.5 82.5t-102.5 30.5v24l297 99l23 -15v-770q0 -147 96 -172v-24l-248 -86l-24 14v170q-45 -89 -131.5 -139.5
t-188.5 -50.5zM369 1194q49 51 107 116t92.5 102t56.5 52q38 26 74 24.5t59 -32.5t14.5 -66.5t-45.5 -68.5q-21 -14 -67 -32.5t-125 -49.5t-152 -65z" />
    <glyph glyph-name="ucircumflex" unicode="&#xfb;" horiz-adv-x="1073" 
d="M471 -20q-161 0 -238 86.5t-77 291.5v459q0 54 -33 82t-103 31v24l297 99l23 -15v-610q0 -198 49.5 -273t159.5 -75q67 0 136 38t97 95v604q0 55 -32.5 82.5t-102.5 30.5v24l297 99l23 -15v-770q0 -147 96 -172v-24l-248 -86l-24 14v170q-45 -89 -131.5 -139.5
t-188.5 -50.5zM324 1167l208 283h50l209 -283l-31 -24l-203 205l-203 -205z" />
    <glyph glyph-name="udieresis" unicode="&#xfc;" horiz-adv-x="1073" 
d="M471 -20q-161 0 -238 86.5t-77 291.5v459q0 54 -33 82t-103 31v24l297 99l23 -15v-610q0 -198 49.5 -273t159.5 -75q67 0 136 38t97 95v604q0 55 -32.5 82.5t-102.5 30.5v24l297 99l23 -15v-770q0 -147 96 -172v-24l-248 -86l-24 14v170q-45 -89 -131.5 -139.5
t-188.5 -50.5zM264 1303q0 55 40 95t95 40q56 0 96 -40t40 -95t-40.5 -95.5t-95.5 -40.5t-95 40t-40 96zM580 1303q0 55 40 95t95 40t95 -40t40 -95q0 -56 -40 -96t-95 -40t-95 40t-40 96z" />
    <glyph glyph-name="yacute" unicode="&#xfd;" horiz-adv-x="1103" 
d="M154 -449q-60 0 -102 36.5t-42 88.5q0 43 24.5 71t65.5 28q40 0 94.5 -42t88.5 -42q94 0 237 332l-364 874q-37 86 -138 102v25h478v-25q-79 -12 -108 -42t-9 -83l239 -632q22 56 77.5 186t91 223.5t65.5 192.5q36 123 -115 155v25h357v-23q-58 -11 -102.5 -51.5
t-82.5 -126.5q-163 -366 -284 -659q-64 -152 -116.5 -257t-110.5 -189.5t-118.5 -125.5t-125.5 -41zM432 1194q49 51 107 116t92.5 102t56.5 52q38 26 74 24.5t59 -32.5t15 -67t-45 -68q-21 -14 -67.5 -32.5t-125.5 -49.5t-152 -65z" />
    <glyph glyph-name="thorn" unicode="&#xfe;" horiz-adv-x="1081" 
d="M20 -395q64 9 100 39.5t36 70.5v1655q0 41 -31 67.5t-105 39.5v24l302 98l10 -10v-737q112 192 317 192q160 0 270.5 -142.5t110.5 -371.5q0 -137 -55.5 -262.5t-160.5 -206.5t-234 -81q-29 0 -57 2.5t-47 5.5t-44.5 10t-36.5 10t-35 11.5t-28 9.5v-314q0 -41 37.5 -72
t103.5 -38v-25h-453v25zM340 188q36 -80 105 -125t137 -45q247 0 247 437q0 235 -80 360t-202 125q-63 0 -117.5 -34.5t-89.5 -96.5v-621z" />
    <glyph glyph-name="ydieresis" unicode="&#xff;" horiz-adv-x="1103" 
d="M154 -449q-60 0 -102 36.5t-42 88.5q0 43 24.5 71t65.5 28q40 0 94.5 -42t88.5 -42q94 0 237 332l-364 874q-37 86 -138 102v25h478v-25q-79 -12 -108 -42t-9 -83l239 -632q22 56 77.5 186t91 223.5t65.5 192.5q36 123 -115 155v25h357v-23q-58 -11 -102.5 -51.5
t-82.5 -126.5q-163 -366 -284 -659q-64 -152 -116.5 -257t-110.5 -189.5t-118.5 -125.5t-125.5 -41zM328 1303q0 55 40 95t95 40t95 -40t40 -95q0 -56 -40 -96t-95 -40t-95 40t-40 96zM643 1303q0 55 39.5 95t95.5 40t95.5 -40t39.5 -95q0 -56 -40 -96t-95 -40t-95 40
t-40 96z" />
    <glyph glyph-name="Amacron" unicode="&#x100;" horiz-adv-x="1413" 
d="M16 25q74 9 129 49.5t97 146.5q85 214 245 675t209 595h29l473 -1307q30 -82 79.5 -117t119.5 -42v-25h-645v25q110 7 159 24t60 52.5t-13 93.5l-69 204h-529q-52 -171 -53 -174q-32 -112 0.5 -150.5t169.5 -49.5v-25h-461v25zM373 438h504l-248 738q-175 -485 -256 -738
zM455 1640v37h512v-37h-512z" />
    <glyph glyph-name="amacron" unicode="&#x101;" horiz-adv-x="927" 
d="M254 -20q-94 0 -148.5 57t-54.5 143q0 44 12 79.5t46 74.5t93 75t154.5 76t229.5 82l2 152q8 295 -148 295q-21 0 -38.5 -3.5t-32 -13.5t-24.5 -17t-20.5 -26.5t-15.5 -28t-13.5 -35.5t-10.5 -35t-11 -40q-38 -139 -124 -139q-30 0 -53 28t-23 70q0 102 118 186t277 84
q160 0 233.5 -66.5t69.5 -229.5q-5 -289 -4 -383q1 -128 8 -188t20 -78.5t42 -18.5q39 0 57 29l23 -11q-25 -57 -61.5 -82.5t-96.5 -25.5q-64 0 -105 38.5t-59 129.5q-69 -90 -158.5 -134t-183.5 -44zM209 1194v37h512v-37h-512zM248 244q0 -75 36 -117.5t103 -42.5
q55 0 110.5 29t94.5 82q-8 52 -8 133l2 207q-189 -60 -263.5 -127t-74.5 -164z" />
    <glyph glyph-name="Abreve" unicode="&#x102;" horiz-adv-x="1413" 
d="M16 25q74 9 129 49.5t97 146.5q85 214 245 675t209 595h29l473 -1307q30 -82 79.5 -117t119.5 -42v-25h-645v25q110 7 159 24t60 52.5t-13 93.5l-69 204h-529q-52 -171 -53 -174q-32 -112 0.5 -150.5t169.5 -49.5v-25h-461v25zM373 438h504l-248 738q-175 -485 -256 -738
zM463 1794h96q8 -94 48.5 -144.5t109.5 -50.5q64 0 101.5 50.5t43.5 144.5h96q-8 -110 -71.5 -170.5t-173.5 -60.5q-112 0 -177 60.5t-73 170.5z" />
    <glyph glyph-name="abreve" unicode="&#x103;" horiz-adv-x="927" 
d="M254 -20q-94 0 -148.5 57t-54.5 143q0 44 12 79.5t46 74.5t93 75t154.5 76t229.5 82l2 152q8 295 -148 295q-21 0 -38.5 -3.5t-32 -13.5t-24.5 -17t-20.5 -26.5t-15.5 -28t-13.5 -35.5t-10.5 -35t-11 -40q-38 -139 -124 -139q-30 0 -53 28t-23 70q0 102 118 186t277 84
q160 0 233.5 -66.5t69.5 -229.5q-5 -289 -4 -383q1 -128 8 -188t20 -78.5t42 -18.5q39 0 57 29l23 -11q-25 -57 -61.5 -82.5t-96.5 -25.5q-64 0 -105 38.5t-59 129.5q-69 -90 -158.5 -134t-183.5 -44zM217 1348h96q8 -94 48.5 -144.5t109.5 -50.5q64 0 101.5 50.5
t43.5 144.5h97q-8 -110 -72 -171t-174 -61q-112 0 -177 60.5t-73 171.5zM248 244q0 -75 36 -117.5t103 -42.5q55 0 110.5 29t94.5 82q-8 52 -8 133l2 207q-189 -60 -263.5 -127t-74.5 -164z" />
    <glyph glyph-name="Aogonek" unicode="&#x104;" horiz-adv-x="1413" 
d="M1249 -492q-82 0 -133 50.5t-51 124.5q0 88 84 172q22 23 53.5 46t77 52t70.5 47h-598v25q110 7 159 24t60 52.5t-13 93.5l-69 204h-529q-52 -171 -53 -174q-32 -112 0.5 -150.5t169.5 -49.5v-25h-461v25q74 9 129 49.5t97 146.5q85 214 245 675t209 595h29l473 -1307
q30 -82 79.5 -117t119.5 -42v-25q-10 -10 -46 -37t-89 -80q-60 -60 -60 -145q0 -49 34.5 -84t96.5 -35q53 0 82 33l17 -14q-69 -130 -183 -130zM373 438h504l-248 738q-175 -485 -256 -738z" />
    <glyph glyph-name="aogonek" unicode="&#x105;" horiz-adv-x="927" 
d="M705 -477q-82 0 -133.5 50.5t-51.5 123.5q0 88 84 172q14 15 35.5 31.5t38.5 28t46.5 31t45.5 30.5h-10q-64 0 -105 38.5t-59 129.5q-69 -90 -158.5 -134t-183.5 -44t-148.5 57t-54.5 143q0 44 12 79.5t46 74.5t93 75t154.5 76t229.5 82l2 152q8 295 -148 295
q-21 0 -38.5 -3.5t-32 -13.5t-24.5 -17t-20.5 -26.5t-15.5 -28t-13.5 -35.5t-10.5 -35t-11 -40q-38 -139 -124 -139q-30 0 -53 28t-23 70q0 102 118 186t277 84q160 0 233.5 -66.5t69.5 -229.5q-5 -289 -4 -383q1 -128 8 -188t20 -78.5t42 -18.5q39 0 57 29l23 -11
q-28 -64 -70 -88q-8 -8 -44 -34.5t-87 -77.5q-60 -60 -60 -146q0 -49 34.5 -84t96.5 -35q53 0 82 33l17 -14q-69 -129 -182 -129zM248 244q0 -75 36 -117.5t103 -42.5q55 0 110.5 29t94.5 82q-8 52 -8 133l2 207q-189 -60 -263.5 -127t-74.5 -164z" />
    <glyph glyph-name="Cacute" unicode="&#x106;" horiz-adv-x="1189" 
d="M684 -20q-133 0 -246.5 52t-197.5 149t-131.5 246t-47.5 333q0 176 47.5 318.5t132 237.5t202 146t257.5 51q222 0 392 -83l20 -388h-27q-71 241 -166.5 338t-240.5 97q-122 0 -211 -92.5t-133.5 -253.5t-44.5 -371q0 -343 121.5 -526t332.5 -183q118 0 214.5 48.5
t185.5 181.5l26 -19q-85 -146 -205 -214t-280 -68zM487 1683q50 51 107.5 116t92 102.5t56.5 52.5q38 26 74.5 24.5t59.5 -32.5t14.5 -67.5t-45.5 -68.5q-21 -14 -67 -32.5t-125 -49.5t-152 -65z" />
    <glyph glyph-name="cacute" unicode="&#x107;" horiz-adv-x="921" 
d="M504 -20q-200 0 -326.5 145.5t-126.5 406.5q0 120 36 218.5t98 162t143 97.5t172 34q177 0 279 -67t102 -158q0 -45 -26.5 -73.5t-68.5 -28.5q-36 0 -61 22t-37 55t-28.5 71.5t-33.5 71.5t-53 55t-86 22q-107 0 -171 -118t-64 -329q0 -232 95 -355.5t241 -123.5
q164 0 270 137l19 -12q-117 -233 -373 -233zM311 1214q50 51 107.5 116t92 102.5t56.5 52.5q38 26 74 24.5t59 -32.5t15 -67.5t-45 -68.5q-21 -14 -67 -32.5t-125 -49.5t-152 -65z" />
    <glyph glyph-name="Ccaron" unicode="&#x10c;" horiz-adv-x="1189" 
d="M684 -20q-133 0 -246.5 52t-197.5 149t-131.5 246t-47.5 333q0 176 47.5 318.5t132 237.5t202 146t257.5 51q222 0 392 -83l20 -388h-27q-71 241 -166.5 338t-240.5 97q-122 0 -211 -92.5t-133.5 -253.5t-44.5 -371q0 -343 121.5 -526t332.5 -183q118 0 214.5 48.5
t185.5 181.5l26 -19q-85 -146 -205 -214t-280 -68zM442 1898l31 25l203 -205l203 205l30 -25l-209 -282h-49z" />
    <glyph glyph-name="ccaron" unicode="&#x10d;" horiz-adv-x="921" 
d="M504 -20q-200 0 -326.5 145.5t-126.5 406.5q0 120 36 218.5t98 162t143 97.5t172 34q177 0 279 -67t102 -158q0 -45 -26.5 -73.5t-68.5 -28.5q-36 0 -61 22t-37 55t-28.5 71.5t-33.5 71.5t-53 55t-86 22q-107 0 -171 -118t-64 -329q0 -232 95 -355.5t241 -123.5
q164 0 270 137l19 -12q-117 -233 -373 -233zM266 1430l31 24l203 -205l202 205l31 -24l-209 -283h-49z" />
    <glyph glyph-name="Dcaron" unicode="&#x10e;" horiz-adv-x="1327" 
d="M41 25q83 9 119.5 42t36.5 101v1155q0 68 -36.5 101t-119.5 42v25h565q164 0 294 -59.5t211 -162t123 -233.5t42 -280q0 -354 -179.5 -555t-510.5 -201h-545v25zM401 168q0 -69 38 -101t114 -32h25q150 0 258 91t160.5 243.5t52.5 349.5q0 366 -126.5 551.5t-351.5 185.5
h-18q-76 0 -114 -32t-38 -101v-1155zM414 1876l30 25l203 -205l203 205l31 -25l-209 -283h-49z" />
    <glyph glyph-name="dcaron" unicode="&#x10f;" horiz-adv-x="1124" 
d="M432 -20q-159 0 -270 137t-111 352q0 143 37.5 255.5t102.5 181t147 103.5t176 35q129 0 236 -49v369q0 54 -33 82t-103 31v24l289 98l23 -14v-1317q0 -147 96 -172v-24l-248 -86l-24 14v172q-112 -192 -318 -192zM252 545q0 -221 80.5 -341t202.5 -120q63 0 117 34.5
t89 96.5v576q-31 102 -101.5 162.5t-139.5 60.5q-105 0 -176.5 -120.5t-71.5 -348.5zM989 1642q3 46 26 73.5t60 27.5q40 2 65 -27t25 -78q0 -24 -10.5 -75.5l-31.5 -154.5t-38 -216h-24q-12 111 -31 213t-30.5 157t-10.5 80z" />
    <glyph glyph-name="Dcroat" unicode="&#x110;" horiz-adv-x="1327" 
d="M41 25q83 9 119.5 42t36.5 101v612h-136v37h136v506q0 68 -36.5 101t-119.5 42v25h565q164 0 294 -59.5t211 -162t123 -233.5t42 -280q0 -354 -179.5 -555t-510.5 -201h-545v25zM401 168q0 -69 38 -101t114 -32h25q150 0 258 91t160.5 243.5t52.5 349.5
q0 366 -126.5 551.5t-351.5 185.5h-18q-76 0 -114 -32t-38 -101v-506h271v-37h-271v-612z" />
    <glyph glyph-name="dcroat" unicode="&#x111;" horiz-adv-x="1042" 
d="M432 -20q-159 0 -270 137t-111 352q0 143 37.5 255.5t102.5 181t147 103.5t176 35q129 0 236 -49v215h-183v37h183v117q0 54 -33 82t-103 31v24l289 98l23 -14v-338h106v-37h-106v-942q0 -147 96 -172v-24l-248 -86l-24 14v172q-112 -192 -318 -192zM252 545
q0 -221 80.5 -341t202.5 -120q63 0 117 34.5t89 96.5v576q-31 102 -101.5 162.5t-139.5 60.5q-105 0 -176.5 -120.5t-71.5 -348.5z" />
    <glyph glyph-name="Emacron" unicode="&#x112;" horiz-adv-x="1144" 
d="M41 25q83 9 119.5 42t36.5 101v1155q0 68 -36.5 101t-119.5 42v25h995l41 -363h-26q-27 170 -140 249t-319 79h-33q-81 0 -119.5 -31.5t-38.5 -101.5v-463q241 0 316 6q87 8 135 63.5t59 184.5h27v-557h-27q-14 143 -61 199.5t-133 62.5q-10 1 -316 6v-657
q0 -70 38.5 -101.5t119.5 -31.5h80q209 0 320.5 85t138.5 283h26l-41 -403h-1042v25zM330 1640v37h512v-37h-512z" />
    <glyph glyph-name="emacron" unicode="&#x113;" horiz-adv-x="942" 
d="M516 -20q-198 0 -331.5 149.5t-133.5 382.5q0 257 125.5 394.5t333.5 137.5q171 0 277 -108t106 -274l-8 -13h-631q-2 -27 -2 -82q0 -224 95 -351.5t259 -127.5q82 0 155.5 40t117.5 101l22 -16q-124 -233 -385 -233zM242 1200v37h512v-37h-512zM256 684h446
q-1 161 -57 245.5t-151 84.5q-208 0 -238 -330z" />
    <glyph glyph-name="Edotaccent" unicode="&#x116;" horiz-adv-x="1144" 
d="M41 25q83 9 119.5 42t36.5 101v1155q0 68 -36.5 101t-119.5 42v25h995l41 -363h-26q-27 170 -140 249t-319 79h-33q-81 0 -119.5 -31.5t-38.5 -101.5v-463q241 0 316 6q87 8 135 63.5t59 184.5h27v-557h-27q-14 143 -61 199.5t-133 62.5q-10 1 -316 6v-657
q0 -70 38.5 -101.5t119.5 -31.5h80q209 0 320.5 85t138.5 283h26l-41 -403h-1042v25zM451 1790q0 56 39.5 95.5t95.5 39.5t95.5 -39.5t39.5 -95.5t-39.5 -95.5t-95.5 -39.5t-95.5 39.5t-39.5 95.5z" />
    <glyph glyph-name="edotaccent" unicode="&#x117;" horiz-adv-x="942" 
d="M516 -20q-198 0 -331.5 149.5t-133.5 382.5q0 257 125.5 394.5t333.5 137.5q171 0 277 -108t106 -274l-8 -13h-631q-2 -27 -2 -82q0 -224 95 -351.5t259 -127.5q82 0 155.5 40t117.5 101l22 -16q-124 -233 -385 -233zM256 684h446q-1 161 -57 245.5t-151 84.5
q-208 0 -238 -330zM362 1350q0 55 40 95t96 40t95.5 -39.5t39.5 -95.5t-40 -96t-95 -40q-56 0 -96 40t-40 96z" />
    <glyph glyph-name="Eogonek" unicode="&#x118;" horiz-adv-x="1144" 
d="M936 -492q-82 0 -133 50.5t-51 124.5q0 88 84 172q22 23 53.5 46t77 52t69.5 47h-995v25q83 9 119.5 42t36.5 101v1155q0 68 -36.5 101t-119.5 42v25h995l41 -363h-26q-27 170 -140 249t-319 79h-33q-81 0 -119.5 -31.5t-38.5 -101.5v-463q241 0 316 6q87 8 135 63.5
t59 184.5h27v-557h-27q-14 143 -61 199.5t-133 62.5q-10 1 -316 6v-657q0 -70 38.5 -101.5t119.5 -31.5h80q209 0 320.5 85t138.5 283h26l-41 -403q-10 -10 -46 -37t-89 -80q-59 -59 -59 -145q0 -49 34.5 -84t96.5 -35q53 0 82 33l16 -14q-69 -130 -182 -130z" />
    <glyph glyph-name="eogonek" unicode="&#x119;" horiz-adv-x="942" 
d="M600 -449q-82 0 -133 50.5t-51 124.5q0 88 84 172q32 32 123 92q-55 -10 -107 -10q-198 0 -331.5 149.5t-133.5 382.5q0 257 125.5 394.5t333.5 137.5q171 0 277 -108t106 -274l-8 -13h-631q-2 -27 -2 -82q0 -224 95 -351.5t259 -127.5q82 0 155.5 40t117.5 101l22 -16
q-62 -118 -160 -176q-5 -4 -41.5 -32t-87.5 -79q-59 -59 -59 -145q0 -49 34.5 -84t96.5 -35q53 0 82 33l16 -14q-69 -130 -182 -130zM256 684h446q-1 161 -57 245.5t-151 84.5q-208 0 -238 -330z" />
    <glyph glyph-name="Ecaron" unicode="&#x11a;" horiz-adv-x="1144" 
d="M41 25q83 9 119.5 42t36.5 101v1155q0 68 -36.5 101t-119.5 42v25h995l41 -363h-26q-27 170 -140 249t-319 79h-33q-81 0 -119.5 -31.5t-38.5 -101.5v-463q241 0 316 6q87 8 135 63.5t59 184.5h27v-557h-27q-14 143 -61 199.5t-133 62.5q-10 1 -316 6v-657
q0 -70 38.5 -101.5t119.5 -31.5h80q209 0 320.5 85t138.5 283h26l-41 -403h-1042v25zM352 1876l31 25l203 -205l202 205l31 -25l-209 -283h-49z" />
    <glyph glyph-name="ecaron" unicode="&#x11b;" horiz-adv-x="942" 
d="M516 -20q-198 0 -331.5 149.5t-133.5 382.5q0 257 125.5 394.5t333.5 137.5q171 0 277 -108t106 -274l-8 -13h-631q-2 -27 -2 -82q0 -224 95 -351.5t259 -127.5q82 0 155.5 40t117.5 101l22 -16q-124 -233 -385 -233zM256 684h446q-1 161 -57 245.5t-151 84.5
q-208 0 -238 -330zM264 1436l31 24l203 -205l202 205l31 -24l-209 -283h-49z" />
    <glyph glyph-name="uni0122" unicode="&#x122;" horiz-adv-x="1384" 
d="M684 -20q-127 0 -238 49t-197.5 143t-137 245.5t-50.5 342.5q0 355 170.5 554t470.5 199q134 0 251 -31t171 -67l21 -360h-27q-69 218 -177 320t-271 102q-185 0 -283 -163.5t-98 -463.5q0 -386 118.5 -606.5t309.5 -220.5q129 0 204.5 63t75.5 172v397q0 60 -43 90
t-153 39v25h542v-25q-141 -16 -141 -129v-655h-26q-20 76 -107 76q-38 0 -74.5 -15t-66 -33t-93.5 -33t-151 -15zM483 -391l15 12q66 -70 172 -70q95 0 110 76q-28 -4 -37 -4q-51 0 -84.5 38t-33.5 99q0 60 39.5 98t91.5 38q65 0 104 -47.5t39 -124.5q0 -87 -60.5 -152.5
t-160.5 -65.5q-59 0 -111 25.5t-84 77.5z" />
    <glyph glyph-name="uni0123" unicode="&#x123;" horiz-adv-x="978" 
d="M403 -465q-200 1 -296.5 73t-96.5 185q0 66 46.5 125.5t166.5 132.5l-151 209v25q51 39 274 94q-122 32 -191 118t-69 205q0 161 100 251.5t281 90.5q71 0 157.5 -19t129.5 -19q19 0 97.5 2t117.5 2v-45l-224 6q129 -93 129 -256q0 -156 -107.5 -254.5t-287.5 -98.5h-8
q-82 0 -139 -14t-79 -31t-22 -34q0 -27 30 -38.5t79.5 -9.5t112.5 4.5t129.5 5.5t130 -10.5t113.5 -40.5t81.5 -86t32.5 -145q3 -171 -151.5 -300t-385.5 -128zM182 -127q0 -119 78.5 -191t239.5 -73q165 -1 256.5 73t91.5 181q0 48 -14.5 85.5t-46.5 60t-62.5 38t-84.5 20
t-88 7t-98 -3.5t-90.5 -9.5t-86.5 -11.5q-10 -1 -15 -2q-80 -64 -80 -174zM281 717q0 -137 59.5 -230.5t155.5 -93.5q82 0 132 88.5t50 218.5q0 137 -57 225.5t-152 88.5q-85 0 -136.5 -87t-51.5 -210zM354 1280q0 107 72.5 208.5t191.5 147.5l11 -20q-61 -27 -113.5 -104.5
t-60.5 -141.5q22 10 55 10q52 0 85.5 -38t33.5 -99q0 -60 -39.5 -97.5t-91.5 -37.5q-66 0 -105 47.5t-39 124.5z" />
    <glyph glyph-name="Imacron" unicode="&#x12a;" horiz-adv-x="604" 
d="M41 25q83 9 119.5 41.5t36.5 99.5v1159q0 67 -36.5 99.5t-119.5 41.5v25h522v-25q-85 -8 -123.5 -40.5t-38.5 -100.5v-1159q0 -68 38.5 -100.5t123.5 -40.5v-25h-522v25zM43 1640v37h512v-37h-512z" />
    <glyph glyph-name="imacron" unicode="&#x12b;" horiz-adv-x="491" 
d="M20 25q64 9 100 39.5t36 70.5v631q0 43 -32 72.5t-104 33.5v25l297 137l23 -14v-885q0 -41 37.5 -72t103.5 -38v-25h-461v25zM-8 1174v36h512v-36h-512z" />
    <glyph glyph-name="Iogonek" unicode="&#x12e;" horiz-adv-x="604" 
d="M416 -492q-82 0 -133.5 50.5t-51.5 124.5q0 88 84 172q22 23 53.5 46t77 52t70.5 47h-475v25q83 9 119.5 41.5t36.5 99.5v1159q0 67 -36.5 99.5t-119.5 41.5v25h522v-25q-85 -8 -123.5 -40.5t-38.5 -100.5v-1159q0 -68 38.5 -100.5t123.5 -40.5v-25q-10 -10 -46 -37
t-89 -80q-59 -59 -59 -145q0 -49 34.5 -84t96.5 -35q53 0 82 33l16 -14q-69 -130 -182 -130z" />
    <glyph glyph-name="iogonek" unicode="&#x12f;" horiz-adv-x="491" 
d="M334 -492q-82 0 -133 50.5t-51 124.5q0 89 83 172q22 23 53.5 46t77 52t70.5 47h-414v25q64 9 100 39.5t36 70.5v631q0 43 -32 72.5t-104 33.5v25l297 137l23 -14v-885q0 -41 37.5 -72t103.5 -38v-25q-10 -10 -46 -37t-89 -80q-59 -59 -59 -145q0 -49 34.5 -84t96.5 -35
q53 0 82 33l16 -14q-69 -130 -182 -130zM113 1323q0 55 39.5 95t95.5 40t95.5 -40t39.5 -95t-39.5 -95t-95.5 -40t-95.5 40t-39.5 95z" />
    <glyph glyph-name="dotlessi" unicode="&#x131;" horiz-adv-x="491" 
d="M20 25q64 9 100 39.5t36 70.5v631q0 43 -32 72.5t-104 33.5v25l297 137l23 -14v-885q0 -41 37.5 -72t103.5 -38v-25h-461v25z" />
    <glyph glyph-name="IJ" unicode="&#x132;" horiz-adv-x="1253" 
d="M571 -428q-62 0 -117 41.5t-55 103.5q0 48 30.5 77.5t76.5 29.5q32 0 59 -14t46 -34t37.5 -39.5t43 -33.5t53.5 -14q37 0 58 37t32 143.5t11 304.5v1151q0 66 -40 98.5t-136 42.5v25h542v-25q-84 -8 -122.5 -41t-38.5 -100v-1120q0 -113 -30.5 -216t-80.5 -177.5
t-112.5 -129.5t-129 -82.5t-127.5 -27.5zM41 0v25q83 9 119.5 41.5t36.5 99.5v1159q0 67 -36.5 99.5t-119.5 41.5v25h522v-25q-85 -8 -123.5 -40.5t-38.5 -100.5v-1159q0 -68 38.5 -100.5t123.5 -40.5v-25h-522z" />
    <glyph glyph-name="ij" unicode="&#x133;" horiz-adv-x="978" 
d="M412 -428q-57 0 -106.5 37t-49.5 94q0 43 27.5 69.5t68.5 26.5q29 0 52.5 -13.5t40.5 -32.5t33.5 -38.5t38 -33t46.5 -13.5q35 0 55 35t29.5 127t9.5 262v688q0 43 -31.5 73t-103.5 34v24l297 138l23 -15v-913q0 -120 -41.5 -226t-105.5 -175t-139 -108.5t-144 -39.5z
M20 0v25q64 9 100 39.5t36 70.5v645q0 43 -32 73t-104 34v24l297 138l23 -15v-899q0 -41 37.5 -72t103.5 -38v-25h-461zM117 1331q0 49 35.5 84t83.5 35q49 0 83.5 -34.5t34.5 -84.5t-34.5 -84.5t-83.5 -34.5q-48 0 -83.5 35t-35.5 84zM618 1331q0 49 35 84t84 35t84 -35
t35 -84t-35 -84t-84 -35t-84 35t-35 84z" />
    <glyph glyph-name="uni0136" unicode="&#x136;" horiz-adv-x="1439" 
d="M41 25q83 9 119.5 41.5t36.5 99.5v1159q0 67 -36.5 99.5t-119.5 41.5v25h522v-25q-85 -8 -123.5 -40.5t-38.5 -100.5v-524h2q34 0 248.5 204.5t306.5 333.5q22 32 25 57.5t-35 44t-119 25.5v25h508v-25q-97 -15 -164 -44t-131 -93q-71 -70 -213.5 -212t-212.5 -212
l535 -698q76 -100 131.5 -138t140.5 -44v-25h-604v25q179 18 88 147l-336 469q-86 121 -155 121h-15v-596q0 -68 38.5 -100.5t123.5 -40.5v-25h-522v25zM432 -371l14 13q66 -70 172 -70q96 0 111 76q-28 -4 -37 -4q-52 0 -85.5 38t-33.5 99q0 60 40 97.5t92 37.5
q65 0 104 -47.5t39 -124.5q0 -87 -60.5 -152t-160.5 -65q-59 0 -111 25t-84 77z" />
    <glyph glyph-name="uni0137" unicode="&#x137;" horiz-adv-x="1097" 
d="M20 25q64 9 100 39.5t36 70.5v1229q0 54 -33 82t-103 31v24l297 98l23 -14v-1036h4q47 0 144 90t190 233q17 26 22.5 46t-2 37t-34.5 28t-74 16v25h405v-25q-82 -15 -137.5 -43t-116.5 -94l-196 -217l354 -491q42 -59 84 -90.5t104 -38.5v-25h-485v25q73 9 83.5 43.5
t-36.5 103.5l-149 221q-49 72 -77 96.5t-61 24.5h-22v-379q0 -41 37.5 -72t103.5 -38v-25h-461v25zM305 -371l14 13q66 -70 173 -70q95 0 110 76q-28 -4 -37 -4q-52 0 -85.5 38t-33.5 99q0 60 40 97.5t92 37.5q65 0 104 -47.5t39 -124.5q0 -87 -60.5 -152t-160.5 -65
q-59 0 -111 25t-84 77z" />
    <glyph glyph-name="Lacute" unicode="&#x139;" horiz-adv-x="1144" 
d="M41 25q83 9 119.5 42t36.5 101v1157q0 67 -36.5 99.5t-119.5 41.5v25h522v-25q-85 -8 -123.5 -40.5t-38.5 -100.5v-1157q0 -70 38.5 -101.5t119.5 -31.5h80q209 0 320.5 85t138.5 283h26l-41 -403h-1042v25zM109 1651q49 51 107 116t92.5 102t56.5 52q38 26 74 24.5
t59 -32.5t14.5 -66.5t-45.5 -68.5q-21 -14 -67 -32.5t-125.5 -50t-151.5 -65.5z" />
    <glyph glyph-name="lacute" unicode="&#x13a;" horiz-adv-x="501" 
d="M20 25q64 9 100 39.5t36 70.5v1229q0 54 -33 82t-103 31v24l297 98l23 -14v-1450q0 -41 37.5 -72t103.5 -38v-25h-461v25zM59 1735q49 51 107 116t92.5 102t56.5 52q38 26 74.5 24.5t59.5 -32.5t14.5 -66.5t-45.5 -68.5q-21 -14 -67 -32.5t-125.5 -50t-151.5 -65.5z" />
    <glyph glyph-name="uni013B" unicode="&#x13b;" horiz-adv-x="1144" 
d="M41 25q83 9 119.5 42t36.5 101v1157q0 67 -36.5 99.5t-119.5 41.5v25h522v-25q-85 -8 -123.5 -40.5t-38.5 -100.5v-1157q0 -70 38.5 -101.5t119.5 -31.5h80q209 0 320.5 85t138.5 283h26l-41 -403h-1042v25zM334 -371l14 13q66 -70 172 -70q96 0 111 76q-28 -4 -37 -4
q-52 0 -85.5 38t-33.5 99q0 60 39.5 97.5t91.5 37.5q66 0 105 -47.5t39 -124.5q0 -87 -61 -152t-161 -65q-132 0 -194 102z" />
    <glyph glyph-name="uni013C" unicode="&#x13c;" horiz-adv-x="501" 
d="M20 25q64 9 100 39.5t36 70.5v1229q0 54 -33 82t-103 31v24l297 98l23 -14v-1450q0 -41 37.5 -72t103.5 -38v-25h-461v25zM41 -360l14 12q66 -70 172 -70q96 0 111 76q-28 -4 -37 -4q-52 0 -85.5 38t-33.5 99q0 60 39.5 97.5t91.5 37.5q66 0 105 -47.5t39 -124.5
q0 -87 -60.5 -152t-160.5 -65q-59 0 -111 25.5t-84 77.5z" />
    <glyph glyph-name="Lcaron" unicode="&#x13d;" horiz-adv-x="1144" 
d="M41 25q83 9 119.5 42t36.5 101v1157q0 67 -36.5 99.5t-119.5 41.5v25h522v-25q-85 -8 -123.5 -40.5t-38.5 -100.5v-1157q0 -70 38.5 -101.5t119.5 -31.5h80q209 0 320.5 85t138.5 283h26l-41 -403h-1042v25zM631 1647q3 46 26 73t60 27q40 2 65 -27t25 -78
q0 -24 -10.5 -75.5l-31.5 -154.5t-38 -216h-25q-12 111 -31 213t-30 157.5t-10 80.5z" />
    <glyph glyph-name="lcaron" unicode="&#x13e;" horiz-adv-x="604" 
d="M20 25q64 9 100 39.5t36 70.5v1229q0 54 -33 82t-103 31v24l297 98l23 -14v-1450q0 -41 37.5 -72t103.5 -38v-25h-461v25zM408 1645q3 46 26 73t60 27q40 2 65 -27t25 -78q0 -24 -10.5 -75.5l-31.5 -154.5t-38 -216h-25q-12 111 -31 213t-30 157.5t-10 80.5z" />
    <glyph glyph-name="Lslash" unicode="&#x141;" horiz-adv-x="1144" 
d="M41 25q83 9 119.5 42t36.5 101v453l-123 -107l-25 29l148 127v655q0 67 -36.5 99.5t-119.5 41.5v25h522v-25q-85 -8 -123.5 -40.5t-38.5 -100.5v-477l148 127l22 -29l-170 -147v-631q0 -70 38.5 -101.5t119.5 -31.5h80q209 0 320.5 85t138.5 283h26l-41 -403h-1042v25z
" />
    <glyph glyph-name="lslash" unicode="&#x142;" horiz-adv-x="501" 
d="M20 25q64 9 100 39.5t36 70.5v430l-115 -168l-31 21l146 213v733q0 54 -33 82t-103 31v24l297 98l23 -14v-721l147 217l31 -20l-178 -262v-664q0 -41 37.5 -72t103.5 -38v-25h-461v25z" />
    <glyph glyph-name="Nacute" unicode="&#x143;" horiz-adv-x="1341" 
d="M25 25q78 8 116.5 48.5t44.5 135.5q8 159 9 347t-1 432t-1 374q0 40 -42.5 68.5t-115.5 35.5v25h350l727 -1055q0 739 -4 826q-6 96 -56.5 145.5t-162.5 58.5v25h438v-25q-79 -8 -117.5 -47t-44.5 -131q-12 -181 -13.5 -394.5t1.5 -478t2 -415.5h-35l-884 1307
q4 -878 10 -1096q2 -81 45.5 -128.5t150.5 -57.5v-25h-417v25zM459 1661q49 51 107 116t92.5 102t56.5 52q38 26 74 24.5t59 -32.5t14.5 -66.5t-45.5 -68.5q-21 -14 -67 -32.5t-125.5 -50t-151.5 -65.5z" />
    <glyph glyph-name="nacute" unicode="&#x144;" horiz-adv-x="1118" 
d="M20 25q64 9 100 39.5t36 70.5v635q0 71 -34 109.5t-102 38.5v24l293 107l23 -15v-184q46 88 132 141t181 53q325 0 322 -378l-4 -539q5 -38 42 -66.5t99 -35.5v-25h-461v25q64 9 99.5 39.5t35.5 70.5l4 481q1 95 -13.5 160t-45 100t-68.5 49.5t-92 14.5q-68 0 -134 -38.5
t-93 -98.5v-668q0 -41 37.5 -72t103.5 -38v-25h-461v25zM403 1214q50 51 107.5 116t92 102.5t56.5 52.5q38 26 74.5 24.5t59.5 -32.5t14.5 -67.5t-45.5 -68.5q-21 -14 -67 -32.5t-125 -49.5t-152 -65z" />
    <glyph glyph-name="uni0145" unicode="&#x145;" horiz-adv-x="1341" 
d="M25 25q78 8 116.5 48.5t44.5 135.5q8 159 9 347t-1 432t-1 374q0 40 -42.5 68.5t-115.5 35.5v25h350l727 -1055q0 739 -4 826q-6 96 -56.5 145.5t-162.5 58.5v25h438v-25q-79 -8 -117.5 -47t-44.5 -131q-12 -181 -13.5 -394.5t1.5 -478t2 -415.5h-35l-884 1307
q4 -878 10 -1096q2 -81 45.5 -128.5t150.5 -57.5v-25h-417v25zM440 -371l15 13q66 -70 172 -70q95 0 110 76q-28 -4 -37 -4q-51 0 -84.5 38t-33.5 99q0 60 39.5 97.5t91.5 37.5q65 0 104 -47.5t39 -124.5q0 -87 -60.5 -152t-160.5 -65q-59 0 -111 25t-84 77z" />
    <glyph glyph-name="uni0146" unicode="&#x146;" horiz-adv-x="1118" 
d="M20 25q64 9 100 39.5t36 70.5v635q0 71 -34 109.5t-102 38.5v24l293 107l23 -15v-184q46 88 132 141t181 53q325 0 322 -378l-4 -539q5 -38 42 -66.5t99 -35.5v-25h-461v25q64 9 99.5 39.5t35.5 70.5l4 481q1 95 -13.5 160t-45 100t-68.5 49.5t-92 14.5q-68 0 -134 -38.5
t-93 -98.5v-668q0 -41 37.5 -72t103.5 -38v-25h-461v25zM317 -371l15 13q66 -70 172 -70q95 0 110 76q-28 -4 -36 -4q-52 0 -85.5 38t-33.5 99q0 60 39.5 97.5t91.5 37.5q65 0 104 -47.5t39 -124.5q0 -87 -60.5 -152t-160.5 -65q-59 0 -111 25t-84 77z" />
    <glyph glyph-name="Ncaron" unicode="&#x147;" horiz-adv-x="1341" 
d="M25 25q78 8 116.5 48.5t44.5 135.5q8 159 9 347t-1 432t-1 374q0 40 -42.5 68.5t-115.5 35.5v25h350l727 -1055q0 739 -4 826q-6 96 -56.5 145.5t-162.5 58.5v25h438v-25q-79 -8 -117.5 -47t-44.5 -131q-12 -181 -13.5 -394.5t1.5 -478t2 -415.5h-35l-884 1307
q4 -878 10 -1096q2 -81 45.5 -128.5t150.5 -57.5v-25h-417v25zM414 1876l30 25l203 -205l203 205l31 -25l-209 -283h-49z" />
    <glyph glyph-name="ncaron" unicode="&#x148;" horiz-adv-x="1118" 
d="M20 25q64 9 100 39.5t36 70.5v635q0 71 -34 109.5t-102 38.5v24l293 107l23 -15v-184q46 88 132 141t181 53q325 0 322 -378l-4 -539q5 -38 42 -66.5t99 -35.5v-25h-461v25q64 9 99.5 39.5t35.5 70.5l4 481q1 95 -13.5 160t-45 100t-68.5 49.5t-92 14.5q-68 0 -134 -38.5
t-93 -98.5v-668q0 -41 37.5 -72t103.5 -38v-25h-461v25zM358 1430l31 24l203 -205l203 205l30 -24l-209 -283h-49z" />
    <glyph glyph-name="Omacron" unicode="&#x14c;" horiz-adv-x="1378" 
d="M696 -20q-193 0 -336.5 93.5t-221 266.5t-77.5 405q0 353 170.5 560.5t460.5 207.5q289 0 457 -204t168 -553q0 -355 -168 -565.5t-453 -210.5zM289 760q0 -340 117.5 -542t316.5 -202q168 0 267.5 190.5t99.5 512.5q0 349 -111 553.5t-301 204.5q-180 0 -284.5 -193.5
t-104.5 -523.5zM434 1659v37h512v-37h-512z" />
    <glyph glyph-name="omacron" unicode="&#x14d;" horiz-adv-x="1030" 
d="M520 -20q-220 0 -344.5 142.5t-124.5 379.5q0 249 124 395.5t343 146.5q217 0 339 -143.5t122 -384.5q0 -243 -122 -389.5t-337 -146.5zM252 520q0 -232 72.5 -371t212.5 -139q80 0 135 63t80.5 169.5t25.5 249.5q0 240 -69 381t-203 141q-125 0 -189.5 -134t-64.5 -360z
M262 1194v37h512v-37h-512z" />
    <glyph glyph-name="Ohungarumlaut" unicode="&#x150;" horiz-adv-x="1378" 
d="M696 -20q-193 0 -336.5 93.5t-221 266.5t-77.5 405q0 353 170.5 560.5t460.5 207.5q289 0 457 -204t168 -553q0 -355 -168 -565.5t-453 -210.5zM289 760q0 -340 117.5 -542t316.5 -202q168 0 267.5 190.5t99.5 512.5q0 349 -111 553.5t-301 204.5q-180 0 -284.5 -193.5
t-104.5 -523.5zM469 1632q36 63 76 140t64 121t42 65q31 35 65.5 42t65.5 -18q29 -23 30.5 -60t-26.5 -77q-17 -19 -57.5 -48.5t-109 -79.5t-130.5 -101zM717 1628q36 63 76 140t64 121t42 65q31 35 65.5 42t65.5 -18q29 -23 30.5 -60t-26.5 -77q-17 -19 -57.5 -48.5
t-109 -79.5t-130.5 -101z" />
    <glyph glyph-name="ohungarumlaut" unicode="&#x151;" horiz-adv-x="1030" 
d="M520 -20q-220 0 -344.5 142.5t-124.5 379.5q0 249 124 395.5t343 146.5q217 0 339 -143.5t122 -384.5q0 -243 -122 -389.5t-337 -146.5zM252 520q0 -232 72.5 -371t212.5 -139q80 0 135 63t80.5 169.5t25.5 249.5q0 240 -69 381t-203 141q-125 0 -189.5 -134t-64.5 -360z
M297 1167q36 63 76 140t64 121t42 65q31 36 65.5 42.5t65.5 -17.5q29 -23 30.5 -60.5t-26.5 -77.5q-17 -19 -57.5 -48.5t-109 -79.5t-130.5 -101zM545 1163q36 63 76 140t64 121t42 65q31 35 65.5 42t65.5 -18q29 -23 30.5 -60t-26.5 -77q-17 -19 -57.5 -48.5t-109 -79.5
t-130.5 -101z" />
    <glyph glyph-name="OE" unicode="&#x152;" horiz-adv-x="1957" 
d="M739 0q-319 0 -498.5 202.5t-179.5 542.5q0 171 47.5 306.5t143 234.5t248.5 152t356 53h993l41 -363h-26q-27 170 -140 249t-319 79h-33q-81 0 -119.5 -31.5t-38.5 -101.5v-463q241 0 316 6q87 8 135 63.5t59 184.5h27v-557h-27q-14 143 -61 199.5t-133 62.5
q-10 1 -316 6v-657q0 -70 38.5 -101.5t119.5 -31.5h80q209 0 320.5 85t138.5 283h26l-41 -403h-1157zM289 760q0 -217 54 -379t162 -253t259 -91q139 0 192.5 33t53.5 98v1155q0 83 -31 108t-137 25q-553 -3 -553 -696z" />
    <glyph glyph-name="oe" unicode="&#x153;" horiz-adv-x="1669" 
d="M520 -20q-220 0 -344.5 142.5t-124.5 379.5q0 249 124 395.5t343 146.5q236 0 361 -170q123 170 358 170q171 0 277 -108t106 -274l-8 -13h-631q-2 -27 -2 -82q0 -224 95 -351.5t259 -127.5q82 0 155.5 40t117.5 101l22 -16q-124 -233 -385 -233q-108 0 -201.5 47.5
t-156.5 134.5q-59 -88 -152 -135t-213 -47zM252 520q0 -232 72.5 -371t212.5 -139q80 0 135 63t80.5 169.5t25.5 249.5q0 240 -69 381t-203 141q-125 0 -189.5 -134t-64.5 -360zM983 684h447q-1 160 -57.5 245t-151.5 85q-208 0 -238 -330z" />
    <glyph glyph-name="Racute" unicode="&#x154;" horiz-adv-x="1359" 
d="M41 25q83 9 119.5 41.5t36.5 99.5v1157q0 68 -36.5 101t-119.5 42v25h627q217 0 346 -97t129 -261q0 -133 -109.5 -230.5t-281.5 -124.5l340 -563q59 -97 114 -140t137 -50v-25q-185 -29 -305.5 13.5t-193.5 172.5l-256 455q-68 121 -152 121h-35v-596q0 -70 45 -102
t158 -39v-25h-563v25zM401 801h29q270 0 379 72.5t109 240.5q0 157 -81.5 249.5t-203.5 92.5h-74q-81 0 -119.5 -31.5t-38.5 -101.5v-522zM430 1661q49 51 107 116t92.5 102t56.5 52q38 26 74 24.5t59 -32.5t14.5 -66.5t-45.5 -68.5q-21 -14 -67 -32.5t-125.5 -50
t-151.5 -65.5z" />
    <glyph glyph-name="racute" unicode="&#x155;" horiz-adv-x="808" 
d="M20 25q64 9 100 39.5t36 70.5v635q0 71 -34 109.5t-102 38.5v24l293 107l23 -15v-221q76 100 162 165.5t159 65.5q61 0 101.5 -31.5t40.5 -86.5q0 -41 -28.5 -68t-72.5 -27q-30 0 -81 26t-103 26q-85 0 -174 -111v-637q0 -43 44.5 -73t137.5 -37v-25h-502v25zM231 1214
q50 51 107.5 116t92 102.5t56.5 52.5q38 26 74.5 24.5t59.5 -32.5t14.5 -67.5t-45.5 -68.5q-21 -14 -67 -32.5t-125 -49.5t-152 -65z" />
    <glyph glyph-name="uni0156" unicode="&#x156;" horiz-adv-x="1359" 
d="M41 25q83 9 119.5 41.5t36.5 99.5v1157q0 68 -36.5 101t-119.5 42v25h627q217 0 346 -97t129 -261q0 -133 -109.5 -230.5t-281.5 -124.5l340 -563q59 -97 114 -140t137 -50v-25q-185 -29 -305.5 13.5t-193.5 172.5l-256 455q-68 121 -152 121h-35v-596q0 -70 45 -102
t158 -39v-25h-563v25zM401 801h29q270 0 379 72.5t109 240.5q0 157 -81.5 249.5t-203.5 92.5h-74q-81 0 -119.5 -31.5t-38.5 -101.5v-522zM432 -371l14 13q66 -70 172 -70q96 0 111 76q-28 -4 -37 -4q-52 0 -85.5 38t-33.5 99q0 60 40 97.5t92 37.5q65 0 104 -47.5
t39 -124.5q0 -87 -60.5 -152t-160.5 -65q-59 0 -111 25t-84 77z" />
    <glyph glyph-name="uni0157" unicode="&#x157;" horiz-adv-x="808" 
d="M20 25q64 9 100 39.5t36 70.5v635q0 71 -34 109.5t-102 38.5v24l293 107l23 -15v-221q76 100 162 165.5t159 65.5q61 0 101.5 -31.5t40.5 -86.5q0 -41 -28.5 -68t-72.5 -27q-30 0 -81 26t-103 26q-85 0 -174 -111v-637q0 -43 44.5 -73t137.5 -37v-25h-502v25zM39 -360
l14 12q66 -70 172 -70q96 0 111 76q-28 -4 -37 -4q-52 0 -85.5 38t-33.5 99q0 60 39.5 97.5t91.5 37.5q66 0 105 -47.5t39 -124.5q0 -87 -61 -152t-161 -65q-58 0 -110 25.5t-84 77.5z" />
    <glyph glyph-name="Rcaron" unicode="&#x158;" horiz-adv-x="1359" 
d="M41 25q83 9 119.5 41.5t36.5 99.5v1157q0 68 -36.5 101t-119.5 42v25h627q217 0 346 -97t129 -261q0 -133 -109.5 -230.5t-281.5 -124.5l340 -563q59 -97 114 -140t137 -50v-25q-185 -29 -305.5 13.5t-193.5 172.5l-256 455q-68 121 -152 121h-35v-596q0 -70 45 -102
t158 -39v-25h-563v25zM385 1876l31 25l202 -205l203 205l31 -25l-209 -283h-49zM401 801h29q270 0 379 72.5t109 240.5q0 157 -81.5 249.5t-203.5 92.5h-74q-81 0 -119.5 -31.5t-38.5 -101.5v-522z" />
    <glyph glyph-name="rcaron" unicode="&#x159;" horiz-adv-x="808" 
d="M20 25q64 9 100 39.5t36 70.5v635q0 71 -34 109.5t-102 38.5v24l293 107l23 -15v-221q76 100 162 165.5t159 65.5q61 0 101.5 -31.5t40.5 -86.5q0 -41 -28.5 -68t-72.5 -27q-30 0 -81 26t-103 26q-85 0 -174 -111v-637q0 -43 44.5 -73t137.5 -37v-25h-502v25zM186 1430
l31 24l203 -205l203 205l30 -24l-209 -283h-49z" />
    <glyph glyph-name="Sacute" unicode="&#x15a;" horiz-adv-x="1079" 
d="M524 -20q-144 0 -277.5 34.5t-185.5 81.5l-20 385h27q64 -221 194 -341t295 -120q135 0 210 72.5t75 204.5q0 70 -33 133t-86.5 110t-122 94.5t-140.5 87.5t-140.5 87.5t-122 94.5t-86.5 110t-33 133q0 159 113.5 262.5t314.5 103.5q275 0 401 -110l21 -313h-27
q-65 190 -176 288.5t-240 98.5q-91 0 -153 -71t-62 -171q0 -64 41.5 -122.5t107 -106t145.5 -95t160 -100t145.5 -110t107 -137t41.5 -169.5q0 -89 -27.5 -162t-84.5 -131t-154.5 -90t-227.5 -32zM324 1683q50 51 107.5 116t92 102.5t56.5 52.5q38 26 74 24.5t59 -32.5
t14.5 -67.5t-45.5 -68.5q-21 -14 -67 -32.5t-125 -49.5t-152 -65z" />
    <glyph glyph-name="sacute" unicode="&#x15b;" horiz-adv-x="827" 
d="M428 -20q-109 0 -209.5 24t-144.5 57v289h20q49 -157 146 -248.5t209 -91.5q85 0 132.5 45t47.5 127q0 48 -29.5 93.5t-77 83t-104.5 75.5t-114.5 78t-105 82t-77 95t-29.5 110q0 112 82 178.5t234 66.5q73 0 165.5 -21t135.5 -50l-29 -260h-21q-45 148 -120 224.5
t-158 76.5q-56 0 -92.5 -34.5t-36.5 -100.5q0 -43 29 -85.5t75 -78.5t102 -73.5t112 -78.5t102 -85.5t75 -101.5t29 -120q0 -117 -93.5 -196.5t-254.5 -79.5zM229 1227q49 51 107 116t92.5 102t56.5 52q38 26 74 24.5t59 -32.5t15 -67t-45 -68q-21 -14 -67 -32.5t-125.5 -50
t-151.5 -65.5z" />
    <glyph glyph-name="Scedilla" unicode="&#x15e;" horiz-adv-x="1079" 
d="M539 -485q-125 0 -181 98l23 20q36 -33 64 -45t61 -12q49 0 76.5 30.5t27.5 82.5q0 61 -34.5 89.5t-106.5 33.5l37 168q-140 3 -267 37t-178 79l-20 385h27q64 -221 194 -341t295 -120q135 0 210 72.5t75 204.5q0 70 -33 133t-86.5 110t-122 94.5t-140.5 87.5
t-140.5 87.5t-122 94.5t-86.5 110t-33 133q0 159 113.5 262.5t314.5 103.5q275 0 401 -110l21 -313h-27q-65 190 -176 288.5t-240 98.5q-91 0 -153 -71t-62 -171q0 -64 41.5 -122.5t107 -106t145.5 -95t160 -100t145.5 -110t107 -137t41.5 -169.5q0 -87 -26.5 -159.5
t-81.5 -130t-149 -90.5t-220 -35l-31 -140q100 22 163.5 -20.5t63.5 -128.5q0 -79 -54 -127.5t-144 -48.5z" />
    <glyph glyph-name="scedilla" unicode="&#x15f;" horiz-adv-x="827" 
d="M442 -485q-124 0 -180 98l23 20q36 -33 64 -45t61 -12q49 0 76.5 30.5t27.5 82.5q0 61 -34.5 89.5t-106.5 33.5l37 168q-105 3 -199.5 26.5t-136.5 54.5v289h20q49 -157 146 -248.5t209 -91.5q85 0 132.5 45t47.5 127q0 48 -29.5 93.5t-77 83t-104.5 75.5t-114.5 78
t-105 82t-77 95t-29.5 110q0 112 82 178.5t234 66.5q73 0 165.5 -21t135.5 -50l-29 -260h-21q-45 148 -120 224.5t-158 76.5q-56 0 -92.5 -34.5t-36.5 -100.5q0 -43 29 -85.5t75 -78.5t102 -73.5t112 -78.5t102 -85.5t75 -101.5t29 -120q0 -114 -89 -193t-243 -83l-30 -140
q100 22 163.5 -20.5t63.5 -128.5q0 -79 -54.5 -127.5t-144.5 -48.5z" />
    <glyph glyph-name="Scaron" unicode="&#x160;" horiz-adv-x="1079" 
d="M524 -20q-144 0 -277.5 34.5t-185.5 81.5l-20 385h27q64 -221 194 -341t295 -120q135 0 210 72.5t75 204.5q0 70 -33 133t-86.5 110t-122 94.5t-140.5 87.5t-140.5 87.5t-122 94.5t-86.5 110t-33 133q0 159 113.5 262.5t314.5 103.5q275 0 401 -110l21 -313h-27
q-65 190 -176 288.5t-240 98.5q-91 0 -153 -71t-62 -171q0 -64 41.5 -122.5t107 -106t145.5 -95t160 -100t145.5 -110t107 -137t41.5 -169.5q0 -89 -27.5 -162t-84.5 -131t-154.5 -90t-227.5 -32zM279 1898l30 25l203 -205l203 205l30 -25l-208 -282h-50z" />
    <glyph glyph-name="scaron" unicode="&#x161;" horiz-adv-x="827" 
d="M428 -20q-109 0 -209.5 24t-144.5 57v289h20q49 -157 146 -248.5t209 -91.5q85 0 132.5 45t47.5 127q0 48 -29.5 93.5t-77 83t-104.5 75.5t-114.5 78t-105 82t-77 95t-29.5 110q0 112 82 178.5t234 66.5q73 0 165.5 -21t135.5 -50l-29 -260h-21q-45 148 -120 224.5
t-158 76.5q-56 0 -92.5 -34.5t-36.5 -100.5q0 -43 29 -85.5t75 -78.5t102 -73.5t112 -78.5t102 -85.5t75 -101.5t29 -120q0 -117 -93.5 -196.5t-254.5 -79.5zM184 1442l31 24l203 -204l203 204l30 -24l-209 -283h-49z" />
    <glyph glyph-name="uni0162" unicode="&#x162;" horiz-adv-x="1214" 
d="M623 -444q-125 0 -181 98l23 20q36 -33 64 -45t61 -12q49 0 76.5 30.5t27.5 82.5q0 62 -34.5 90t-106.5 33l33 147h-238v25q83 9 119.5 41.5t36.5 99.5v1290h-49q-338 0 -418 -350h-27l45 385h1104l45 -385h-26q-80 350 -418 350h-51v-1290q0 -68 38.5 -100.5
t122.5 -40.5v-25h-249l-27 -119q100 22 163.5 -20.5t63.5 -128.5q0 -79 -54 -127.5t-144 -48.5z" />
    <glyph glyph-name="uni0163" unicode="&#x163;" horiz-adv-x="600" 
d="M377 -485q-124 0 -180 98l22 20q36 -33 64 -45t61 -12q49 0 77 30.5t28 82.5q0 61 -34.5 89.5t-107.5 33.5l37 168q-111 5 -173 81.5t-62 255.5v672h-99v21q172 120 260 278l23 -6v-260q34 0 137 2t133 2v-45q-20 0 -125.5 4t-144.5 4v-602q0 -115 20.5 -182.5t55.5 -93
t90 -25.5q34 0 65 13.5t47 29.5l19 -18q-30 -54 -86.5 -90.5t-124.5 -40.5l-31 -140q100 22 163.5 -20.5t63.5 -128.5q0 -79 -54 -127.5t-144 -48.5z" />
    <glyph glyph-name="Tcaron" unicode="&#x164;" horiz-adv-x="1214" 
d="M348 25q83 9 119.5 41.5t36.5 99.5v1290h-49q-338 0 -418 -350h-27l45 385h1104l45 -385h-26q-80 350 -418 350h-51v-1290q0 -68 38.5 -100.5t122.5 -40.5v-25h-522v25zM375 1876l31 25l202 -205l203 205l31 -25l-209 -283h-49z" />
    <glyph glyph-name="tcaron" unicode="&#x165;" horiz-adv-x="600" 
d="M362 -20q-57 0 -101 16t-79.5 53t-54 104.5t-18.5 163.5v672h-99v21q172 120 260 278l23 -6v-260q34 0 137 2t133 2v-45q-20 0 -125.5 4t-144.5 4v-602q0 -115 20.5 -182.5t55.5 -93t90 -25.5q34 0 65 13.5t47 29.5l19 -18q-32 -58 -93 -94.5t-135 -36.5zM373 1546
q3 46 26 73.5t60 27.5q40 2 65 -27t25 -78q0 -24 -10.5 -75.5l-31.5 -154.5t-38 -216h-25q-12 111 -31 213t-30 157t-10 80z" />
    <glyph glyph-name="Umacron" unicode="&#x16a;" horiz-adv-x="1384" 
d="M705 -20q-147 0 -249 36.5t-162.5 112t-87 180.5t-26.5 252v764q0 67 -36.5 99.5t-118.5 41.5v25h522v-25q-85 -8 -123.5 -40.5t-38.5 -100.5v-729q0 -150 24.5 -257t73.5 -171t115 -93.5t154 -29.5q391 0 391 467q0 609 -4 748q-4 114 -48 156t-155 50v25h434v-27
q-96 -9 -134 -51t-42 -153q-6 -197 -6 -711q0 -156 -34 -268t-99 -177t-151 -94.5t-199 -29.5zM479 1640v37h512v-37h-512z" />
    <glyph glyph-name="umacron" unicode="&#x16b;" horiz-adv-x="1073" 
d="M471 -20q-161 0 -238 86.5t-77 291.5v459q0 54 -33 82t-103 31v24l297 99l23 -15v-610q0 -198 49.5 -273t159.5 -75q67 0 136 38t97 95v604q0 55 -32.5 82.5t-102.5 30.5v24l297 99l23 -15v-770q0 -147 96 -172v-24l-248 -86l-24 14v170q-45 -89 -131.5 -139.5
t-188.5 -50.5zM301 1174v36h512v-36h-512z" />
    <glyph glyph-name="Uring" unicode="&#x16e;" horiz-adv-x="1384" 
d="M705 -20q-147 0 -249 36.5t-162.5 112t-87 180.5t-26.5 252v764q0 67 -36.5 99.5t-118.5 41.5v25h522v-25q-85 -8 -123.5 -40.5t-38.5 -100.5v-729q0 -150 24.5 -257t73.5 -171t115 -93.5t154 -29.5q391 0 391 467q0 609 -4 748q-4 114 -48 156t-155 50v25h434v-27
q-96 -9 -134 -51t-42 -153q-6 -197 -6 -711q0 -156 -34 -268t-99 -177t-151 -94.5t-199 -29.5zM535 1763q0 99 55.5 161.5t144.5 62.5t145 -61t56 -157q0 -98 -55.5 -160.5t-143.5 -62.5q-89 0 -145.5 61t-56.5 156zM631 1774q0 -85 30.5 -138t79.5 -53q43 0 71 50t28 128
q0 84 -30.5 137.5t-78.5 53.5q-44 0 -72 -50t-28 -128z" />
    <glyph glyph-name="uring" unicode="&#x16f;" horiz-adv-x="1073" 
d="M471 -20q-161 0 -238 86.5t-77 291.5v459q0 54 -33 82t-103 31v24l297 99l23 -15v-610q0 -198 49.5 -273t159.5 -75q67 0 136 38t97 95v604q0 55 -32.5 82.5t-102.5 30.5v24l297 99l23 -15v-770q0 -147 96 -172v-24l-248 -86l-24 14v170q-45 -89 -131.5 -139.5
t-188.5 -50.5zM356 1296q0 99 56 161.5t145 62.5t145 -60.5t56 -156.5q0 -98 -55.5 -161t-143.5 -63q-89 0 -146 61t-57 156zM453 1307q0 -85 30.5 -138t79.5 -53q43 0 71 50t28 128q0 84 -30.5 137.5t-78.5 53.5q-44 0 -72 -50t-28 -128z" />
    <glyph glyph-name="Uhungarumlaut" unicode="&#x170;" horiz-adv-x="1384" 
d="M705 -20q-147 0 -249 36.5t-162.5 112t-87 180.5t-26.5 252v764q0 67 -36.5 99.5t-118.5 41.5v25h522v-25q-85 -8 -123.5 -40.5t-38.5 -100.5v-729q0 -150 24.5 -257t73.5 -171t115 -93.5t154 -29.5q391 0 391 467q0 609 -4 748q-4 114 -48 156t-155 50v25h434v-27
q-96 -9 -134 -51t-42 -153q-6 -197 -6 -711q0 -156 -34 -268t-99 -177t-151 -94.5t-199 -29.5zM514 1614q36 62 76 139.5t64 121t42 64.5q31 36 65.5 42.5t65.5 -17.5q29 -23 30.5 -60t-26.5 -77q-17 -19 -57 -49t-108.5 -80.5t-130.5 -100.5zM762 1610q36 62 76 139.5
t64 121t42 64.5q31 36 65.5 42.5t65.5 -17.5q29 -23 30.5 -60t-26.5 -77q-17 -19 -57.5 -49t-109 -80t-130.5 -101z" />
    <glyph glyph-name="uhungarumlaut" unicode="&#x171;" horiz-adv-x="1073" 
d="M471 -20q-161 0 -238 86.5t-77 291.5v459q0 54 -33 82t-103 31v24l297 99l23 -15v-610q0 -198 49.5 -273t159.5 -75q67 0 136 38t97 95v604q0 55 -32.5 82.5t-102.5 30.5v24l297 99l23 -15v-770q0 -147 96 -172v-24l-248 -86l-24 14v170q-45 -89 -131.5 -139.5
t-188.5 -50.5zM336 1147q36 63 76 140t64 121t42 65q31 35 65.5 42t65.5 -18q29 -23 30.5 -60t-26.5 -77q-17 -19 -57.5 -49t-109 -80t-130.5 -101zM584 1143q36 62 76 139.5t64 121t42 64.5q31 36 65.5 42.5t65.5 -17.5q29 -23 30.5 -60t-26.5 -77q-17 -19 -57.5 -49
t-109 -80t-130.5 -101z" />
    <glyph glyph-name="Uogonek" unicode="&#x172;" horiz-adv-x="1384" 
d="M874 -416q-82 0 -133 50t-51 124q0 88 84 172q26 26 80 66q-60 -16 -149 -16q-147 0 -249 36.5t-162.5 112t-87 180.5t-26.5 252v764q0 67 -36.5 99.5t-118.5 41.5v25h522v-25q-85 -8 -123.5 -40.5t-38.5 -100.5v-729q0 -150 24.5 -257t73.5 -171t115 -93.5t154 -29.5
q391 0 391 467q0 609 -4 748q-4 114 -48 156t-155 50v25h434v-27q-96 -9 -134 -51t-42 -153q-6 -197 -6 -711q0 -354 -180 -488q-5 -4 -22.5 -16t-40.5 -31.5t-58 -54.5q-60 -60 -60 -145q0 -49 34.5 -84t96.5 -35q53 0 82 33l17 -15q-69 -129 -183 -129z" />
    <glyph glyph-name="uogonek" unicode="&#x173;" horiz-adv-x="1073" 
d="M915 -420q-82 0 -133 50t-51 124q0 88 84 172q11 11 24 22t30.5 24t29.5 21t35 23.5t33 22.5l-152 -53l-24 14v170q-45 -89 -131.5 -139.5t-188.5 -50.5q-161 0 -238 86.5t-77 291.5v459q0 54 -33 82t-103 31v24l297 99l23 -15v-610q0 -198 49.5 -273t159.5 -75
q67 0 136 38t97 95v604q0 55 -32.5 82.5t-102.5 30.5v24l297 99l23 -15v-770q0 -147 96 -172v-24q-10 -10 -46 -37t-89 -80q-60 -60 -60 -145q0 -49 34.5 -84t96.5 -35q53 0 82 33l17 -15q-69 -129 -183 -129z" />
    <glyph glyph-name="Wcircumflex" unicode="&#x174;" horiz-adv-x="2002" 
d="M209 1325q-43 127 -193 141v25h564v-25q-101 -10 -128.5 -42.5t-2.5 -108.5l315 -991l213 581l-152 420q-45 127 -194 141v25h651v-25q-112 -7 -164 -23t-63.5 -47.5t8.5 -80.5l344 -979q31 98 98.5 302.5t112.5 347.5t76 261q17 65 18 103t-17.5 63.5t-56 36.5
t-106.5 16v25h455v-25q-35 -4 -62.5 -13.5t-57.5 -30t-55.5 -59.5t-46.5 -95q-81 -214 -234.5 -692t-189.5 -586h-30l-310 852l-307 -852h-30zM772 1634l209 283h49l209 -283l-31 -24l-202 205l-203 -205z" />
    <glyph glyph-name="wcircumflex" unicode="&#x175;" horiz-adv-x="1486" 
d="M174 848q-26 75 -63.5 109t-90.5 42v25h433v-25q-62 -14 -79 -47.5t5 -101.5l194 -614q47 116 152 395l-82 217q-29 75 -64.5 109t-80.5 42v25h481v-25q-103 -13 -129.5 -45.5t-1.5 -103.5l211 -598q130 385 186 592q15 57 -15.5 100t-101.5 55v25h349v-25
q-63 -10 -101.5 -48.5t-68.5 -110.5q-64 -156 -164 -453t-137 -397h-39l-222 583q-56 -137 -231 -583h-39zM512 1167l209 283h49l209 -283l-31 -24l-203 205l-202 -205z" />
    <glyph glyph-name="Ycircumflex" unicode="&#x176;" horiz-adv-x="1277" 
d="M383 25q83 9 119.5 41.5t36.5 99.5v387l-324 754q-35 82 -83 117.5t-116 41.5v25h625v-25q-146 -10 -184 -46.5t-2 -123.5l266 -661q35 84 80 190t68.5 162.5t52.5 131.5t53 147q18 57 20 93t-15.5 58t-49.5 32.5t-88 16.5v25h420v-25q-73 -9 -126.5 -46.5t-91.5 -129.5
q-32 -78 -92.5 -215t-111 -259.5t-97.5 -250.5v-399q0 -68 38.5 -100.5t123.5 -40.5v-25h-522v25zM479 1634l209 283h49l209 -283l-31 -24l-202 205l-203 -205z" />
    <glyph glyph-name="ycircumflex" unicode="&#x177;" horiz-adv-x="1103" 
d="M154 -449q-60 0 -102 36.5t-42 88.5q0 43 24.5 71t65.5 28q40 0 94.5 -42t88.5 -42q94 0 237 332l-364 874q-37 86 -138 102v25h478v-25q-79 -12 -108 -42t-9 -83l239 -632q22 56 77.5 186t91 223.5t65.5 192.5q36 123 -115 155v25h357v-23q-58 -11 -102.5 -51.5
t-82.5 -126.5q-163 -366 -284 -659q-64 -152 -116.5 -257t-110.5 -189.5t-118.5 -125.5t-125.5 -41zM387 1167l209 283h49l209 -283l-31 -24l-202 205l-203 -205z" />
    <glyph glyph-name="Ydieresis" unicode="&#x178;" horiz-adv-x="1277" 
d="M383 25q83 9 119.5 41.5t36.5 99.5v387l-324 754q-35 82 -83 117.5t-116 41.5v25h625v-25q-146 -10 -184 -46.5t-2 -123.5l266 -661q35 84 80 190t68.5 162.5t52.5 131.5t53 147q18 57 20 93t-15.5 58t-49.5 32.5t-88 16.5v25h420v-25q-73 -9 -126.5 -46.5t-91.5 -129.5
q-32 -78 -92.5 -215t-111 -259.5t-97.5 -250.5v-399q0 -68 38.5 -100.5t123.5 -40.5v-25h-522v25zM420 1769q0 56 40 96t95 40t95 -40t40 -96q0 -55 -40 -95t-95 -40t-95 40t-40 95zM735 1769q0 56 40 96t95 40q56 0 96 -40.5t40 -95.5t-40 -95t-96 -40t-95.5 40t-39.5 95z
" />
    <glyph glyph-name="Zacute" unicode="&#x179;" horiz-adv-x="1177" 
d="M61 0v20l781 1436h-238q-206 0 -320 -79t-141 -249h-24l41 363h944v-21l-787 -1435h314q210 0 322 85t139 283h24l-41 -403h-1014zM428 1661q49 51 107 116t92.5 102t56.5 52q38 26 74 24.5t59 -32.5t14.5 -66.5t-45.5 -68.5q-21 -14 -67 -32.5t-125.5 -50t-151.5 -65.5z
" />
    <glyph glyph-name="zacute" unicode="&#x17a;" horiz-adv-x="888" 
d="M41 0v20l565 973h-123q-126 0 -221.5 -65.5t-132.5 -175.5h-20l22 272h690v-20l-575 -973h78q194 0 329 73t174 211h21l-35 -315h-772zM268 1194q49 51 107 116t92.5 102t56.5 52q38 26 74 24.5t59 -32.5t15 -67t-45 -68q-21 -14 -67 -32.5t-125 -49.5t-152 -65z" />
    <glyph glyph-name="Zdotaccent" unicode="&#x17b;" horiz-adv-x="1177" 
d="M61 0v20l781 1436h-238q-206 0 -320 -79t-141 -249h-24l41 363h944v-21l-787 -1435h314q210 0 322 85t139 283h24l-41 -403h-1014zM481 1790q0 56 39.5 95.5t95.5 39.5t96 -40t40 -95t-40 -95t-96 -40t-95.5 39.5t-39.5 95.5z" />
    <glyph glyph-name="zdotaccent" unicode="&#x17c;" horiz-adv-x="888" 
d="M41 0v20l565 973h-123q-126 0 -221.5 -65.5t-132.5 -175.5h-20l22 272h690v-20l-575 -973h78q194 0 329 73t174 211h21l-35 -315h-772zM322 1323q0 55 40 95t95 40t95 -40t40 -95t-40 -95t-95 -40t-95 40t-40 95z" />
    <glyph glyph-name="Zcaron" unicode="&#x17d;" horiz-adv-x="1177" 
d="M61 0v20l781 1436h-238q-206 0 -320 -79t-141 -249h-24l41 363h944v-21l-787 -1435h314q210 0 322 85t139 283h24l-41 -403h-1014zM383 1876l31 25l202 -205l203 205l31 -25l-209 -283h-49z" />
    <glyph glyph-name="zcaron" unicode="&#x17e;" horiz-adv-x="888" 
d="M41 0v20l565 973h-123q-126 0 -221.5 -65.5t-132.5 -175.5h-20l22 272h690v-20l-575 -973h78q194 0 329 73t174 211h21l-35 -315h-772zM223 1409l31 25l203 -205l202 205l31 -25l-209 -283h-49z" />
    <glyph glyph-name="uni0237" unicode="&#x237;" horiz-adv-x="473" 
d="M-80 -428q-57 0 -106.5 37t-49.5 94q0 43 28 69.5t69 26.5q29 0 52.5 -13.5t40.5 -32.5t33.5 -38.5t38 -33t46.5 -13.5q35 0 55 35t29.5 127t9.5 262v674q0 98 -135 106v25l297 137l22 -14v-899q0 -120 -41.5 -226t-105.5 -175t-139 -108.5t-144 -39.5z" />
    <glyph glyph-name="circumflex" unicode="&#x2c6;" horiz-adv-x="679" 
d="M72 1634l-31 25l209 283h49l209 -283l-31 -25l-203 205z" />
    <glyph glyph-name="caron" unicode="&#x2c7;" horiz-adv-x="679" 
d="M250 1618l-209 283l31 24l202 -205l203 205l31 -24l-209 -283h-49z" />
    <glyph glyph-name="breve" unicode="&#x2d8;" horiz-adv-x="610" 
d="M291 1587q-112 0 -177 60.5t-73 171.5h96q8 -94 48.5 -144.5t109.5 -50.5q64 0 101.5 50.5t43.5 144.5h97q-8 -110 -72 -171t-174 -61z" />
    <glyph glyph-name="dotaccent" unicode="&#x2d9;" horiz-adv-x="450" 
d="M215 1679q-55 0 -95 40t-40 96q0 55 40 95t95 40t95 -40t40 -95q0 -56 -40 -96t-95 -40z" />
    <glyph glyph-name="ring" unicode="&#x2da;" horiz-adv-x="491" 
d="M244 1571q-89 0 -146 61t-57 156q0 98 56 160.5t145 62.5t144.5 -60.5t55.5 -156.5q0 -98 -55 -160.5t-143 -62.5zM137 1798q0 -85 30.5 -137.5t80.5 -52.5q43 0 70.5 50t27.5 128q0 84 -30.5 137t-77.5 53q-44 0 -72.5 -50t-28.5 -128z" />
    <glyph glyph-name="ogonek" unicode="&#x2db;" horiz-adv-x="491" 
d="M246 -436q-82 0 -133.5 50t-51.5 124q0 88 84 172q30 32 113.5 86.5t116.5 81.5l18 -23q-10 -10 -46 -36.5t-89 -79.5q-59 -59 -59 -146q0 -49 34.5 -84t96.5 -35q53 0 82 33l16 -14q-69 -129 -182 -129z" />
    <glyph glyph-name="tilde" unicode="&#x2dc;" horiz-adv-x="634" 
d="M393 1614q-54 0 -120 36t-107 36q-73 0 -98 -54l-27 4q13 59 54.5 100.5t101.5 41.5q50 0 112 -37t105 -37q83 0 108 55l27 -8q-12 -62 -53.5 -99.5t-102.5 -37.5z" />
    <glyph glyph-name="hungarumlaut" unicode="&#x2dd;" horiz-adv-x="710" 
d="M285 1634q36 63 76 140t64 121t42 65q31 36 65.5 42.5t65.5 -17.5q29 -23 30.5 -60.5t-26.5 -77.5q-17 -19 -57.5 -48.5t-109 -79.5t-130.5 -101zM37 1638q36 63 76 140t64 121t42 65q31 36 65.5 42.5t65.5 -17.5q29 -23 30.5 -60.5t-26.5 -77.5q-17 -19 -57.5 -48.5
t-109 -79.5t-130.5 -101z" />
    <glyph glyph-name="gravecomb" unicode="&#x300;" 
d="M432 1665q-73 34 -152 65t-125 49.5t-67 32.5q-37 32 -45.5 68.5t14.5 67.5t59 32.5t74 -24.5q22 -15 56.5 -52t92.5 -102t107 -116z" />
    <glyph glyph-name="acutecomb" unicode="&#x301;" 
d="M41 1686q49 51 107 116t92.5 102t56.5 52q38 26 74 24.5t59 -32.5t14.5 -67.5t-45.5 -68.5q-21 -14 -67 -32.5t-125 -49.5t-152 -65z" />
    <glyph glyph-name="uni0302" unicode="&#x302;" 
d="M72 1634l-31 25l209 283h49l209 -283l-31 -25l-203 205z" />
    <glyph glyph-name="tildecomb" unicode="&#x303;" 
d="M393 1614q-54 0 -120 36t-107 36q-73 0 -98 -54l-27 4q13 59 54.5 100.5t101.5 41.5q50 0 112 -37t105 -37q83 0 108 55l27 -8q-12 -62 -53.5 -99.5t-102.5 -37.5z" />
    <glyph glyph-name="uni0304" unicode="&#x304;" 
d="M61 1665v37h512v-37h-512z" />
    <glyph glyph-name="uni0306" unicode="&#x306;" 
d="M291 1587q-112 0 -177 60.5t-73 171.5h96q8 -94 48.5 -144.5t109.5 -50.5q64 0 101.5 50.5t43.5 144.5h97q-8 -110 -72 -171t-174 -61z" />
    <glyph glyph-name="uni0307" unicode="&#x307;" 
d="M176 1679q-55 0 -95 40t-40 96q0 55 39.5 95t95.5 40t95.5 -40t39.5 -95q0 -56 -40 -96t-95 -40z" />
    <glyph glyph-name="uni0308" unicode="&#x308;" 
d="M492 1679q-56 0 -96 40.5t-40 95.5t40 95t96 40t95.5 -40t39.5 -95q0 -56 -40 -96t-95 -40zM41 1815q0 55 39.5 95t95.5 40t95.5 -40t39.5 -95q0 -56 -40 -96t-95 -40t-95 40t-40 96z" />
    <glyph glyph-name="uni030A" unicode="&#x30a;" 
d="M244 1571q-89 0 -146 61t-57 156q0 98 56 160.5t145 62.5t144.5 -60.5t55.5 -156.5q0 -98 -55 -160.5t-143 -62.5zM137 1798q0 -85 30.5 -137.5t80.5 -52.5q43 0 70.5 50t27.5 128q0 84 -30.5 137t-77.5 53q-44 0 -72.5 -50t-28.5 -128z" />
    <glyph glyph-name="uni030B" unicode="&#x30b;" 
d="M285 1634q36 63 76 140t64 121t42 65q31 36 65.5 42.5t65.5 -17.5q29 -23 30.5 -60.5t-26.5 -77.5q-17 -19 -57.5 -48.5t-109 -79.5t-130.5 -101zM37 1638q36 63 76 140t64 121t42 65q31 36 65.5 42.5t65.5 -17.5q29 -23 30.5 -60.5t-26.5 -77.5q-17 -19 -57.5 -48.5
t-109 -79.5t-130.5 -101z" />
    <glyph glyph-name="uni030C" unicode="&#x30c;" 
d="M250 1618l-209 283l31 24l202 -205l203 205l31 -24l-209 -283h-49z" />
    <glyph glyph-name="uni0312" unicode="&#x312;" 
d="M184 1579q-65 0 -104 47.5t-39 124.5q0 107 72.5 208.5t191.5 147.5l10 -20q-61 -27 -113.5 -104.5t-60.5 -141.5q23 10 56 10q51 0 84.5 -38t33.5 -99q0 -60 -39.5 -97.5t-91.5 -37.5z" />
    <glyph glyph-name="uni0326" unicode="&#x326;" 
d="M236 -473q-59 0 -111 25t-84 77l14 13q66 -70 172 -70q96 0 111 76q-28 -4 -37 -4q-52 0 -85.5 38t-33.5 99q0 60 39.5 97.5t91.5 37.5q66 0 105 -47.5t39 -124.5q0 -87 -60.5 -152t-160.5 -65z" />
    <glyph glyph-name="uni0327" unicode="&#x327;" 
d="M221 -465q-124 0 -180 98l22 21q36 -33 64 -45t61 -12q49 0 77 30.5t28 81.5q0 61 -34.5 89.5t-106.5 33.5l43 195l32 -9l-34 -157q100 22 163.5 -21t63.5 -129q0 -79 -54.5 -127.5t-144.5 -48.5z" />
    <glyph glyph-name="uni0328" unicode="&#x328;" 
d="M246 -436q-82 0 -133.5 50t-51.5 124q0 88 84 172q30 32 113.5 86.5t116.5 81.5l18 -23q-10 -10 -46 -36.5t-89 -79.5q-59 -59 -59 -146q0 -49 34.5 -84t96.5 -35q53 0 82 33l16 -14q-69 -129 -182 -129z" />
    <glyph glyph-name="Wgrave" unicode="&#x1e80;" horiz-adv-x="2002" 
d="M209 1325q-43 127 -193 141v25h564v-25q-101 -10 -128.5 -42.5t-2.5 -108.5l315 -991l213 581l-152 420q-45 127 -194 141v25h651v-25q-112 -7 -164 -23t-63.5 -47.5t8.5 -80.5l344 -979q31 98 98.5 302.5t112.5 347.5t76 261q17 65 18 103t-17.5 63.5t-56 36.5
t-106.5 16v25h455v-25q-35 -4 -62.5 -13.5t-57.5 -30t-55.5 -59.5t-46.5 -95q-81 -214 -234.5 -692t-189.5 -586h-30l-310 852l-307 -852h-30zM819 1923q23 31 59 32.5t74 -24.5q22 -15 56.5 -52t92.5 -102t107 -116l-14 -21q-72 34 -151.5 65.5t-125.5 50t-67 32.5
q-37 33 -45.5 68.5t14.5 66.5z" />
    <glyph glyph-name="wgrave" unicode="&#x1e81;" horiz-adv-x="1486" 
d="M174 848q-26 75 -63.5 109t-90.5 42v25h433v-25q-62 -14 -79 -47.5t5 -101.5l194 -614q47 116 152 395l-82 217q-29 75 -64.5 109t-80.5 42v25h481v-25q-103 -13 -129.5 -45.5t-1.5 -103.5l211 -598q130 385 186 592q15 57 -15.5 100t-101.5 55v25h349v-25
q-63 -10 -101.5 -48.5t-68.5 -110.5q-64 -156 -164 -453t-137 -397h-39l-222 583q-56 -137 -231 -583h-39zM559 1456q23 31 59 32.5t74 -24.5q22 -15 56.5 -52t92.5 -102t107 -116l-14 -20q-73 34 -152 65t-125 49.5t-67 32.5q-37 33 -45.5 68.5t14.5 66.5z" />
    <glyph glyph-name="Wacute" unicode="&#x1e82;" horiz-adv-x="2002" 
d="M209 1325q-43 127 -193 141v25h564v-25q-101 -10 -128.5 -42.5t-2.5 -108.5l315 -991l213 581l-152 420q-45 127 -194 141v25h651v-25q-112 -7 -164 -23t-63.5 -47.5t8.5 -80.5l344 -979q31 98 98.5 302.5t112.5 347.5t76 261q17 65 18 103t-17.5 63.5t-56 36.5
t-106.5 16v25h455v-25q-35 -4 -62.5 -13.5t-57.5 -30t-55.5 -59.5t-46.5 -95q-81 -214 -234.5 -692t-189.5 -586h-30l-310 852l-307 -852h-30zM817 1661q49 51 107 116t92.5 102t56.5 52q38 26 74 24.5t59 -32.5t15 -67t-45 -68q-21 -14 -67.5 -32.5t-125.5 -50t-152 -65.5z
" />
    <glyph glyph-name="wacute" unicode="&#x1e83;" horiz-adv-x="1486" 
d="M174 848q-26 75 -63.5 109t-90.5 42v25h433v-25q-62 -14 -79 -47.5t5 -101.5l194 -614q47 116 152 395l-82 217q-29 75 -64.5 109t-80.5 42v25h481v-25q-103 -13 -129.5 -45.5t-1.5 -103.5l211 -598q130 385 186 592q15 57 -15.5 100t-101.5 55v25h349v-25
q-63 -10 -101.5 -48.5t-68.5 -110.5q-64 -156 -164 -453t-137 -397h-39l-222 583q-56 -137 -231 -583h-39zM557 1194q49 51 107 116t92.5 102t56.5 52q38 26 74 24.5t59 -32.5t14.5 -66.5t-45.5 -68.5q-21 -14 -67 -32.5t-125 -49.5t-152 -65z" />
    <glyph glyph-name="Wdieresis" unicode="&#x1e84;" horiz-adv-x="2002" 
d="M209 1325q-43 127 -193 141v25h564v-25q-101 -10 -128.5 -42.5t-2.5 -108.5l315 -991l213 581l-152 420q-45 127 -194 141v25h651v-25q-112 -7 -164 -23t-63.5 -47.5t8.5 -80.5l344 -979q31 98 98.5 302.5t112.5 347.5t76 261q17 65 18 103t-17.5 63.5t-56 36.5
t-106.5 16v25h455v-25q-35 -4 -62.5 -13.5t-57.5 -30t-55.5 -59.5t-46.5 -95q-81 -214 -234.5 -692t-189.5 -586h-30l-310 852l-307 -852h-30zM713 1769q0 56 40 96t95 40t95 -40t40 -96q0 -55 -39.5 -95t-95.5 -40t-95.5 40t-39.5 95zM1028 1769q0 56 40 96t95 40t95 -40
t40 -96q0 -55 -40 -95t-95 -40t-95 40t-40 95z" />
    <glyph glyph-name="wdieresis" unicode="&#x1e85;" horiz-adv-x="1486" 
d="M174 848q-26 75 -63.5 109t-90.5 42v25h433v-25q-62 -14 -79 -47.5t5 -101.5l194 -614q47 116 152 395l-82 217q-29 75 -64.5 109t-80.5 42v25h481v-25q-103 -13 -129.5 -45.5t-1.5 -103.5l211 -598q130 385 186 592q15 57 -15.5 100t-101.5 55v25h349v-25
q-63 -10 -101.5 -48.5t-68.5 -110.5q-64 -156 -164 -453t-137 -397h-39l-222 583q-56 -137 -231 -583h-39zM453 1303q0 55 39.5 95t95.5 40t95.5 -40t39.5 -95q0 -56 -40 -96t-95 -40t-95 40t-40 96zM768 1303q0 55 40 95t95 40t95 -40t40 -95q0 -56 -40 -96t-95 -40t-95 40
t-40 96z" />
    <glyph glyph-name="uni1E9E" unicode="&#x1e9e;" horiz-adv-x="1228" 
d="M844 -20q-148 0 -238 49l31 47q72 -66 194 -66q92 0 141.5 50t49.5 147q0 50 -34.5 102t-85.5 95t-111.5 94.5t-111.5 100.5t-85.5 114.5t-34.5 134.5q0 90 63 167t179 150q32 67 25.5 129t-38 109.5t-86.5 75.5t-120 28q-75 0 -112.5 -35.5t-53 -123t-15.5 -261.5v-921
q0 -68 38.5 -100.5t123.5 -40.5v-25h-522v25q83 9 119.5 41.5t36.5 99.5v819h-101v25l101 10q6 120 53.5 229.5t117 184.5t152 119t160.5 44q103 0 179.5 -51.5t105.5 -133.5t6 -169q-129 -93 -177.5 -167t-48.5 -161q0 -55 24 -105.5t62 -91t84 -79.5t92.5 -80t84.5 -84
t62 -99.5t24 -119.5q0 -112 -95.5 -194t-238.5 -82z" />
    <glyph glyph-name="Ygrave" unicode="&#x1ef2;" horiz-adv-x="1277" 
d="M383 25q83 9 119.5 41.5t36.5 99.5v387l-324 754q-35 82 -83 117.5t-116 41.5v25h625v-25q-146 -10 -184 -46.5t-2 -123.5l266 -661q35 84 80 190t68.5 162.5t52.5 131.5t53 147q18 57 20 93t-15.5 58t-49.5 32.5t-88 16.5v25h420v-25q-73 -9 -126.5 -46.5t-91.5 -129.5
q-32 -78 -92.5 -215t-111 -259.5t-97.5 -250.5v-399q0 -68 38.5 -100.5t123.5 -40.5v-25h-522v25zM526 1923q23 31 59 32.5t74 -24.5q22 -15 56.5 -52t92.5 -102t107 -116l-14 -21q-72 34 -151.5 65.5t-125.5 50t-67 32.5q-37 33 -45.5 68.5t14.5 66.5z" />
    <glyph glyph-name="ygrave" unicode="&#x1ef3;" horiz-adv-x="1103" 
d="M154 -449q-60 0 -102 36.5t-42 88.5q0 43 24.5 71t65.5 28q40 0 94.5 -42t88.5 -42q94 0 237 332l-364 874q-37 86 -138 102v25h478v-25q-79 -12 -108 -42t-9 -83l239 -632q22 56 77.5 186t91 223.5t65.5 192.5q36 123 -115 155v25h357v-23q-58 -11 -102.5 -51.5
t-82.5 -126.5q-163 -366 -284 -659q-64 -152 -116.5 -257t-110.5 -189.5t-118.5 -125.5t-125.5 -41zM434 1456q23 31 59 32.5t74 -24.5q22 -15 56.5 -52t92.5 -102t107 -116l-14 -20q-73 34 -152 65t-125 49.5t-67 32.5q-37 33 -45.5 68.5t14.5 66.5z" />
    <glyph glyph-name="endash" unicode="&#x2013;" horiz-adv-x="929" 
d="M41 780v37h848v-37h-848z" />
    <glyph glyph-name="emdash" unicode="&#x2014;" horiz-adv-x="1400" 
d="M41 780v37h1319v-37h-1319z" />
    <glyph glyph-name="quoteleft" unicode="&#x2018;" horiz-adv-x="325" 
d="M154 1053q-66 0 -105 47.5t-39 124.5q0 107 72.5 208.5t191.5 147.5l11 -20q-61 -27 -113.5 -104.5t-60.5 -141.5q22 10 55 10q52 0 85.5 -38t33.5 -99q0 -60 -39.5 -97.5t-91.5 -37.5z" />
    <glyph glyph-name="quoteright" unicode="&#x2019;" horiz-adv-x="325" 
d="M41 1073q61 27 113.5 104.5t60.5 141.5q-22 -10 -55 -10q-52 0 -85.5 38t-33.5 99q0 60 39.5 97.5t91.5 37.5q65 0 104 -47.5t39 -124.5q0 -107 -72.5 -208.5t-191.5 -147.5z" />
    <glyph glyph-name="quotesinglbase" unicode="&#x201a;" horiz-adv-x="372" 
d="M61 -258q61 27 114 104.5t61 141.5q-25 -11 -56 -11q-51 0 -85 38.5t-34 99.5q0 60 40 97.5t92 37.5q65 0 104 -47.5t39 -124.5q0 -107 -73 -209t-191 -148z" />
    <glyph glyph-name="quotedblleft" unicode="&#x201c;" horiz-adv-x="661" 
d="M489 1053q-65 0 -104 47.5t-39 124.5q0 107 72.5 208.5t191.5 147.5l11 -20q-61 -27 -114 -104.5t-61 -141.5q22 10 56 10q52 0 85.5 -38t33.5 -99q0 -60 -40 -97.5t-92 -37.5zM10 1225q0 107 72.5 208.5t191.5 147.5l11 -20q-61 -27 -113.5 -104.5t-60.5 -141.5
q22 10 55 10q52 0 85.5 -38t33.5 -99q0 -60 -39.5 -97.5t-91.5 -37.5q-66 0 -105 47.5t-39 124.5z" />
    <glyph glyph-name="quotedblright" unicode="&#x201d;" horiz-adv-x="661" 
d="M377 1079q61 27 113.5 104.5t60.5 141.5q-22 -10 -55 -10q-52 0 -85.5 38t-33.5 99q0 60 39.5 97.5t91.5 37.5q65 0 104 -47.5t39 -124.5q0 -107 -72.5 -208.5t-191.5 -147.5zM41 1079q61 27 113.5 104.5t60.5 141.5q-22 -10 -55 -10q-52 0 -85.5 38t-33.5 99
q0 60 39.5 97.5t91.5 37.5q65 0 104 -47.5t39 -124.5q0 -107 -72.5 -208.5t-191.5 -147.5z" />
    <glyph glyph-name="quotedblbase" unicode="&#x201e;" horiz-adv-x="708" 
d="M397 -258q61 27 113.5 104.5t60.5 141.5q-25 -11 -55 -11q-51 0 -85 38.5t-34 99.5q0 60 39.5 97.5t91.5 37.5q66 0 105 -47.5t39 -124.5q0 -107 -73 -209t-191 -148zM61 -258q61 27 114 104.5t61 141.5q-25 -11 -56 -11q-51 0 -85 38.5t-34 99.5q0 60 40 97.5t92 37.5
q65 0 104 -47.5t39 -124.5q0 -107 -73 -209t-191 -148z" />
    <glyph glyph-name="dagger" unicode="&#x2020;" horiz-adv-x="653" 
d="M328 829q-62 0 -62 74q0 44 21 157.5t22 203.5q-41 -7 -102.5 -25t-83.5 -18q-74 0 -74 61q0 59 74 59q16 0 42.5 -6.5t68 -18t75.5 -18.5q-6 34 -17.5 83t-18.5 83t-7 52q0 73 62 73q59 0 59 -73q0 -17 -6 -48.5t-19 -88.5t-18 -81q34 7 75.5 18.5t68 18t42.5 6.5
q74 0 74 -59q0 -61 -74 -61q-22 0 -83.5 18t-102.5 25q3 -86 23 -201t20 -160q0 -74 -59 -74z" />
    <glyph glyph-name="bullet" unicode="&#x2022;" horiz-adv-x="616" 
d="M309 487q-101 0 -174.5 73t-73.5 173q0 101 73.5 174.5t174.5 73.5q100 0 173 -73.5t73 -174.5q0 -100 -73 -173t-173 -73z" />
    <glyph glyph-name="ellipsis" unicode="&#x2026;" horiz-adv-x="1212" 
d="M1016 -20q-56 0 -95.5 40t-39.5 95t39.5 95t95.5 40t95.5 -40t39.5 -95t-39.5 -95t-95.5 -40zM61 115q0 55 40 95t96 40q55 0 95 -40t40 -95t-40 -95t-95 -40q-56 0 -96 40t-40 95zM471 115q0 55 39.5 95t95.5 40t95.5 -40t39.5 -95t-39.5 -95t-95.5 -40t-95.5 40
t-39.5 95z" />
    <glyph glyph-name="guilsinglleft" unicode="&#x2039;" horiz-adv-x="677" 
d="M578 162l-517 330v57l517 330l18 -25l-418 -334l418 -334z" />
    <glyph glyph-name="guilsinglright" unicode="&#x203a;" horiz-adv-x="677" 
d="M100 162l-18 24l418 334l-418 334l18 25l516 -330v-57z" />
    <glyph glyph-name="Euro" unicode="&#x20ac;" horiz-adv-x="1118" 
d="M666 -20q-264 0 -437.5 174.5t-197.5 482.5h-99v37h97q-2 18 -2 59q0 59 2 88h-97v37h101q30 312 201.5 483.5t431.5 171.5q221 0 391 -83l20 -388h-26q-71 241 -167 338t-241 97q-168 0 -270 -168.5t-117 -450.5h510v-37h-510q-2 -20 -2 -61q0 -57 2 -86h510v-37h-508
q19 -290 127 -455.5t299 -165.5q131 0 223.5 98t163.5 337h27l-21 -388q-170 -83 -411 -83z" />
    <glyph glyph-name="trademark" unicode="&#x2122;" horiz-adv-x="1132" 
d="M502 905q60 8 65 74q4 57 7 129.5t5.5 168.5t4.5 150q0 23 -17 36.5t-39 17.5v10h131l164 -412l154 412h129v-10q-55 -7 -55 -54l4 -473q0 -43 63 -49v-10h-205v10q32 4 46 15.5t14 33.5l-4 461l-176 -471h-13l-180 463q-11 -270 -8 -428q1 -39 17 -54t59 -20v-10h-166
v10zM10 1337l19 154h440l18 -154h-10q-30 140 -168 140h-20v-516q0 -27 15.5 -40t49.5 -16v-10h-209v10q62 6 62 56v516h-19q-134 0 -168 -140h-10z" />
    <glyph glyph-name="minus" unicode="&#x2212;" horiz-adv-x="823" 
d="M49 641v37h725v-37h-725z" />
    <glyph glyph-name="approxequal" unicode="&#x2248;" horiz-adv-x="751" 
d="M524 686q-68 0 -166 43t-165 43q-37 0 -66.5 -14t-42.5 -39l-29 4q14 60 59.5 100.5t110.5 40.5q54 0 106 -22t105.5 -44t110.5 -22q91 0 119 55l30 -8q-14 -62 -59.5 -99.5t-112.5 -37.5zM55 477q14 60 59.5 100.5t110.5 40.5q54 0 106 -22t105.5 -44t110.5 -22
q90 0 119 56l30 -8q-14 -62 -59.5 -100t-112.5 -38q-68 0 -166 43t-165 43q-37 0 -66.5 -14t-42.5 -39z" />
    <glyph glyph-name="notequal" unicode="&#x2260;" horiz-adv-x="815" 
d="M213 309l-31 21l119 176h-252v37h277l100 147h-377v37h402l137 205l30 -23l-122 -182h278v-37h-303l-100 -147h403v-37h-428z" />
    <glyph glyph-name="lessequal" unicode="&#x2264;" horiz-adv-x="833" 
d="M647 322l-526 299v36l526 299l21 -36l-500 -281l500 -281zM102 170v37h588v-37h-588z" />
    <glyph glyph-name="greaterequal" unicode="&#x2265;" horiz-adv-x="833" 
d="M186 322l-20 36l500 281l-500 281l20 36l527 -299v-36zM143 170v37h588v-37h-588z" />
    <glyph glyph-name="J_acutecomb" horiz-adv-x="649" 
d="M-33 -428q-62 0 -117 41.5t-55 103.5q0 48 30.5 77.5t76.5 29.5q32 0 59 -14t46 -34t37.5 -39.5t43 -33.5t53.5 -14q37 0 58 37t32 143.5t11 304.5v1151q0 66 -40 98.5t-136 42.5v25h542v-25q-84 -8 -123 -41t-39 -100v-1120q0 -141 -46 -263.5t-117.5 -201.5
t-154.5 -123.5t-161 -44.5zM150 1661q49 51 107 116t92.5 102t56.5 52q38 26 74 24.5t59 -32.5t14.5 -66.5t-45.5 -68.5q-21 -14 -67 -32.5t-125.5 -50t-151.5 -65.5z" />
    <glyph glyph-name="j_acutecomb" horiz-adv-x="473" 
d="M-80 -428q-57 0 -106.5 37t-49.5 94q0 43 28 69.5t69 26.5q29 0 52.5 -13.5t40.5 -32.5t33.5 -38.5t38 -33t46.5 -13.5q35 0 55 35t29.5 127t9.5 262v674q0 98 -135 106v25l297 137l22 -14v-899q0 -120 -41.5 -226t-105.5 -175t-139 -108.5t-144 -39.5zM90 1194
q49 51 107 116t92.5 102t56.5 52q38 26 74 24.5t59 -32.5t15 -67t-45 -68q-21 -14 -67.5 -32.5t-125.5 -49.5t-152 -65z" />
    <glyph glyph-name="k.ss01" horiz-adv-x="1097" 
d="M20 25q64 9 100 39.5t36 70.5v1229q0 54 -33 82t-103 31v24l297 98l23 -14v-1036h4q47 0 144 90t190 233q17 26 22.5 46t-2 37t-34.5 28t-74 16v25h405v-25q-82 -15 -137.5 -43t-116.5 -94l-196 -217l354 -491q42 -59 84 -90.5t104 -38.5v-25h-485v25q73 9 83.5 43.5
t-36.5 103.5l-149 221q-49 72 -77 96.5t-61 24.5h-22v-379q0 -41 37.5 -72t103.5 -38v-25h-461v25z" />
    <glyph glyph-name="s.ss01" horiz-adv-x="839" 
d="M428 -20q-109 0 -209.5 24t-144.5 57v289h20q49 -157 146 -248.5t209 -91.5q85 0 132.5 45t47.5 127q0 48 -30 93.5t-78.5 83t-106.5 75.5t-116.5 78t-107 82t-78.5 95t-30 110q0 112 84 178.5t242 66.5q79 0 173 -21t138 -50l-29 -260h-20q-46 150 -122.5 225.5
t-166.5 75.5q-63 0 -101 -34.5t-38 -100.5q0 -43 29.5 -85.5t76.5 -78.5t104 -73.5t114 -78.5t104 -85.5t76.5 -101.5t29.5 -120q0 -117 -93.5 -196.5t-254.5 -79.5z" />
    <glyph glyph-name="uni030C.alt" 
d="M113 1368q-12 111 -31 213t-30.5 157.5t-10.5 80.5q3 46 26 73t60 27q40 2 65 -26.5t25 -77.5q0 -24 -10.5 -75.5t-31.5 -155t-38 -216.5h-24z" />
    <glyph glyph-name="Jdotless" horiz-adv-x="649" 
d="M-33 -428q-62 0 -117 41.5t-55 103.5q0 48 30.5 77.5t76.5 29.5q32 0 59 -14t46 -34t37.5 -39.5t43 -33.5t53.5 -14q37 0 58 37t32 143.5t11 304.5v1151q0 66 -40 98.5t-136 42.5v25h542v-25q-84 -8 -123 -41t-39 -100v-1120q0 -141 -46 -263.5t-117.5 -201.5
t-154.5 -123.5t-161 -44.5z" />
    </font>
</defs>
</svg>
